<?xml version="1.0" standalone="no"?>
<!DOCTYPE svg PUBLIC "-//W3C//DTD SVG 1.1//EN" "http://www.w3.org/Graphics/SVG/1.1/DTD/svg11.dtd" >
<svg xmlns="http://www.w3.org/2000/svg">
<metadata>Generated by IcoMoon</metadata>
<defs>
<font id="Icon_set_BH" horiz-adv-x="1024">
<font-face units-per-em="1024" ascent="960" descent="-64" />
<missing-glyph horiz-adv-x="1024" />
<glyph unicode="&#x20;" horiz-adv-x="512" d="" />
<glyph unicode="&#xe000;" glyph-name="000" d="M288 816l448-368-448-368v736z" />
<glyph unicode="&#xe001;" glyph-name="001" d="M736 816l-448-368 448-368v736z" />
<glyph unicode="&#xe002;" glyph-name="002" d="M880 264l-368 368-368-368h736z" />
<glyph unicode="&#xe003;" glyph-name="003" d="M880 632l-368-368-368 368h736z" />
<glyph unicode="&#xe004;" glyph-name="004" d="M374.107 804.213c-16.029 15.717-42.050 15.717-58.050 0-16.058-15.76-16.058-41.256 0-57.016l304.822-299.208-304.838-299.198c-16.056-15.73-16.056-41.227 0-56.987 8-7.866 18.507-11.803 29.026-11.803 10.462 0 21.010 3.938 29.024 11.803l333.877 327.683c16.043 15.731 16.043 41.259 0 56.987l-333.861 327.739z" />
<glyph unicode="&#xe005;" glyph-name="005" d="M649.893 804.213c16.029 15.717 42.050 15.717 58.050 0 16.059-15.76 16.059-41.256 0-57.016l-304.822-299.208 304.838-299.198c16.056-15.73 16.056-41.227 0-56.987-8-7.866-18.507-11.803-29.026-11.803-10.462 0-21.010 3.938-29.024 11.803l-333.877 327.683c-16.043 15.731-16.043 41.259 0 56.987l333.861 327.739z" />
<glyph unicode="&#xe006;" glyph-name="006" d="M155.787 310.107c-15.717-16.029-15.717-42.050 0-58.050 15.76-16.059 41.256-16.059 57.016 0l299.208 304.822 299.198-304.838c15.73-16.056 41.227-16.056 56.989 0 7.864 8 11.802 18.507 11.802 29.026 0 10.462-3.938 21.010-11.802 29.024l-327.685 333.877c-15.731 16.043-41.259 16.043-56.987 0l-327.739-333.861z" />
<glyph unicode="&#xe007;" glyph-name="007" d="M155.787 585.893c-15.717 16.029-15.717 42.050 0 58.050 15.76 16.058 41.256 16.058 57.016 0l299.208-304.822 299.2 304.838c15.728 16.056 41.226 16.056 56.987 0 7.864-8 11.802-18.507 11.802-29.026 0-10.462-3.938-21.010-11.802-29.024l-327.685-333.877c-15.731-16.043-41.259-16.043-56.987 0l-327.739 333.861z" />
<glyph unicode="&#xe008;" glyph-name="008" d="M152 632h374.205v184l361.795-368-361.795-368v184h-374.205v368z" />
<glyph unicode="&#xe009;" glyph-name="009" d="M872 632h-374.205v184l-361.795-368 361.795-368v184h374.205v368z" />
<glyph unicode="&#xe010;" glyph-name="010" d="M696 88v374.205h184l-368 361.795-368-361.795h184v-374.205h368z" />
<glyph unicode="&#xe011;" glyph-name="011" d="M328 808v-374.205h-184l368-361.795 368 361.795h-184v374.205h-368z" />
<glyph unicode="&#xe012;" glyph-name="012" d="M671.944 128l208.056 205.714-208.056 205.715h-182.050l195.643-205.715-195.84-205.714h182.246zM352.056 768l-208.056-205.714 208.056-205.715h182.050l-195.643 205.715 195.84 205.714h-182.246z" />
<glyph unicode="&#xe013;" glyph-name="013" d="M336 816v-245.291l122.667-122.709-122.667-122.709v-245.291l368 368-368 368z" />
<glyph unicode="&#xe014;" glyph-name="014" d="M664 816v-245.291l-106.667-122.709 106.667-122.709v-245.291l-320 368 320 368z" />
<glyph unicode="&#xe015;" glyph-name="015" d="M880 248h-245.291l-122.709 138.667-122.709-138.667h-245.291l368 416 368-416z" />
<glyph unicode="&#xe016;" glyph-name="016" d="M880 648h-245.291l-122.709-138.667-122.709 138.667h-245.291l368-416 368 416z" />
<glyph unicode="&#xe017;" glyph-name="017" d="M716.978 72l-327.31 335.416-237.667-226.47v627.054l650.803-0.893-232.97-238.691 318.166-320.387-171.022-176.029z" />
<glyph unicode="&#xe018;" glyph-name="018" d="M307.022 824l327.31-335.416 237.667 226.47v-627.054l-650.803 0.893 232.97 238.691-318.166 320.387 171.022 176.029z" />
<glyph unicode="&#xe019;" glyph-name="019" d="M424.542 816v-115h-256.542v-207h256.542v-414h104.949v414h268.203l58.306 105.416-58.306 101.584h-268.203v115h-104.949z" />
<glyph unicode="&#xe020;" glyph-name="020" d="M192 288.056l205.714-208.056 205.715 208.056v182.050l-205.715-195.643-205.714 195.84v-182.246zM832 607.944l-205.714 208.056-205.715-208.056v-182.050l205.715 195.643 205.714-195.84v182.246z" />
<glyph unicode="&#xe021;" glyph-name="021" d="M720.096 239.904c-114.882-114.882-301.31-114.882-416.192 0s-114.882 301.31 0 416.192c114.882 114.882 301.31 114.882 416.192 0 115.086-114.882 115.086-301.31 0-416.192zM251.778 708.222c-143.704-143.706-143.704-376.739 0-520.445 143.706-143.704 376.739-143.704 520.443 0 143.706 143.706 143.706 376.739 0 520.445-143.704 143.704-376.738 143.704-520.443 0zM486.107 612.213c-16.029 15.717-42.050 15.717-58.050 0-16.058-15.76-16.058-41.256 0-57.016l112.822-107.208-112.838-107.198c-16.056-15.73-16.056-41.227 0-56.987 8-7.866 18.507-11.803 29.026-11.803 10.462 0 21.010 3.938 29.024 11.803l141.877 135.683c16.043 15.731 16.043 41.259 0 56.987l-141.861 135.739z" />
<glyph unicode="&#xe022;" glyph-name="022" d="M303.904 656.096c114.882 114.882 301.31 114.882 416.192 0s114.882-301.31 0-416.192c-114.882-114.882-301.31-114.882-416.192 0-115.086 114.882-115.086 301.31 0 416.192zM772.222 187.778c143.704 143.706 143.704 376.739 0 520.445-143.706 143.704-376.739 143.704-520.443 0-143.706-143.706-143.706-376.739 0-520.445 143.704-143.704 376.738-143.704 520.443 0zM537.893 283.787c16.029-15.717 42.050-15.717 58.050 0 16.058 15.76 16.058 41.256 0 57.016l-112.822 107.208 112.838 107.198c16.056 15.73 16.056 41.227 0 56.987-8 7.866-18.507 11.803-29.026 11.803-10.462 0-21.010-3.938-29.024-11.803l-141.877-135.683c-16.043-15.731-16.043-41.259 0-56.987l141.861-135.739z" />
<glyph unicode="&#xe023;" glyph-name="023" d="M720.096 656.096c114.882-114.882 114.882-301.31 0-416.192s-301.31-114.882-416.192 0c-114.882 114.882-114.882 301.31 0 416.192 114.882 115.086 301.31 115.086 416.192 0zM251.778 187.778c143.706-143.704 376.739-143.704 520.445 0 143.704 143.706 143.704 376.739 0 520.443-143.706 143.706-376.739 143.706-520.445 0-143.704-143.704-143.704-376.738 0-520.443zM347.787 422.107c-15.717-16.029-15.717-42.050 0-58.050 15.76-16.058 41.256-16.058 57.016 0l107.208 112.822 107.198-112.838c15.73-16.056 41.227-16.056 56.987 0 7.866 8 11.803 18.507 11.803 29.026 0 10.462-3.938 21.010-11.803 29.024l-135.683 141.877c-15.731 16.043-41.259 16.043-56.987 0l-135.739-141.861z" />
<glyph unicode="&#xe024;" glyph-name="024" d="M303.904 239.904c-114.882 114.882-114.882 301.31 0 416.192s301.31 114.882 416.192 0c114.882-114.882 114.882-301.31 0-416.192-114.882-115.086-301.31-115.086-416.192 0zM772.222 708.222c-143.706 143.704-376.739 143.704-520.445 0-143.704-143.706-143.704-376.739 0-520.443 143.706-143.706 376.739-143.706 520.445 0 143.704 143.704 143.704 376.738 0 520.443zM676.213 473.893c15.717 16.029 15.717 42.050 0 58.050-15.76 16.058-41.256 16.058-57.016 0l-107.208-112.822-107.198 112.838c-15.73 16.056-41.227 16.056-56.987 0-7.866-8-11.803-18.507-11.803-29.026 0-10.462 3.938-21.010 11.803-29.024l135.683-141.877c15.731-16.043 41.259-16.043 56.987 0l135.739 141.861z" />
<glyph unicode="&#xe025;" glyph-name="025" d="M303.904 239.904c-114.882 114.882-114.882 301.31 0 416.192s301.31 114.882 416.192 0c114.882-114.882 114.882-301.31 0-416.192-114.882-115.086-301.31-115.086-416.192 0zM772.222 708.222c-143.706 143.704-376.739 143.704-520.445 0-143.704-143.706-143.704-376.739 0-520.443 143.706-143.706 376.739-143.706 520.445 0 143.704 143.704 143.704 376.738 0 520.443zM543.73 607.786l-106.206 0.214 121.374-120.939h-238.898v-77.494h239.762l-122.019-121.566h105.987l160.27 159.886-160.27 159.899z" />
<glyph unicode="&#xe026;" glyph-name="026" d="M720.096 239.904c114.882 114.882 114.882 301.31 0 416.192s-301.31 114.882-416.192 0c-114.882-114.882-114.882-301.31 0-416.192 114.882-115.086 301.31-115.086 416.192 0zM251.779 708.222c143.704 143.704 376.738 143.704 520.443 0 143.704-143.706 143.704-376.739 0-520.443-143.706-143.706-376.739-143.706-520.443 0-143.706 143.704-143.706 376.738 0 520.443zM480.27 607.786l106.206 0.214-121.374-120.939h238.898v-77.494h-239.762l122.019-121.566h-105.987l-160.27 159.886 160.27 159.899z" />
<glyph unicode="&#xe027;" glyph-name="027" d="M303.904 239.904c114.882-114.882 301.31-114.882 416.192 0s114.882 301.31 0 416.192c-114.882 114.882-301.31 114.882-416.192 0-115.086-114.882-115.086-301.31 0-416.192zM772.222 708.221c143.704-143.704 143.704-376.738 0-520.443-143.706-143.704-376.739-143.704-520.443 0-143.706 143.706-143.706 376.739 0 520.443 143.704 143.706 376.738 143.706 520.443 0zM671.786 479.73l0.214-106.206-120.939 121.374v-238.898h-77.494v239.762l-121.566-122.019v105.987l159.886 160.27 159.899-160.27z" />
<glyph unicode="&#xe028;" glyph-name="028" d="M303.904 656.096c114.882 114.882 301.31 114.882 416.192 0s114.882-301.31 0-416.192c-114.882-114.882-301.31-114.882-416.192 0-115.086 114.882-115.086 301.31 0 416.192zM772.222 187.779c143.704 143.704 143.704 376.738 0 520.443-143.706 143.704-376.739 143.704-520.443 0-143.706-143.706-143.706-376.739 0-520.443 143.704-143.706 376.738-143.706 520.443 0zM671.786 416.27l0.214 106.206-120.939-121.374v238.898h-77.494v-239.762l-121.566 122.019v-105.987l159.886-160.27 159.899 160.27z" />
<glyph unicode="&#xe029;" glyph-name="029" d="M572.816 751.594l307.184-303.808-307.184-303.786h-203.144l233.872 230.978h-459.544v147.237h457.888l-232.635 229.786 203.563-0.406z" />
<glyph unicode="&#xe030;" glyph-name="030" d="M451.184 751.594l-307.184-303.808 307.184-303.786h203.144l-233.872 230.978h459.544v147.237h-457.888l232.635 229.786-203.563-0.406z" />
<glyph unicode="&#xe031;" glyph-name="031" d="M815.594 508.816l-303.808 307.184-303.786-307.184v-203.144l230.978 233.872v-459.544h147.237v457.888l229.786-232.635-0.406 203.563z" />
<glyph unicode="&#xe032;" glyph-name="032" d="M815.594 387.184l-303.808-307.184-303.786 307.184v203.144l230.978-233.872v459.544h147.237v-457.888l229.786 232.635-0.406-203.563z" />
<glyph unicode="&#xe050;" glyph-name="050" d="M408.501 816v-264.501h-264.501v-207h264.501v-264.499h207v264.499h264.499v207h-264.499v264.501h-207z" />
<glyph unicode="&#xe051;" glyph-name="051" d="M144 544h736v-192h-736v192z" />
<glyph unicode="&#xe052;" glyph-name="052" d="M718.438 816l-206.438-206.454-206.438 206.454-161.562-161.562 206.454-206.438-206.454-206.438 161.562-161.562 206.438 206.454 206.438-206.454 161.562 161.562-206.454 206.438 206.454 206.438-161.562 161.562z" />
<glyph unicode="&#xe053;" glyph-name="053" d="M592.264 810.944c15.675 0 29.61-5.184 40.061-15.552s15.675-24.192 15.675-39.744-5.226-27.648-15.675-39.744c-10.451-10.368-24.386-15.552-40.061-15.552-15.677 0-27.869 5.184-40.061 15.552-10.451 10.368-15.677 24.192-15.677 39.744s5.226 29.376 15.677 39.744c10.45 10.368 24.384 15.552 40.061 15.552v0zM599.23 591.488l-109.731-387.072c-6.968-25.92-10.451-41.472-10.451-46.656s1.742-10.368 5.226-13.824c3.483-3.456 6.966-5.184 12.192-5.184s12.192 3.456 20.901 8.64c20.902 17.28 41.803 39.744 64.446 70.848l19.16-12.096c-26.126-38.016-55.738-70.848-88.83-96.768-26.128-19.008-48.77-29.376-73.155-29.376-15.675 0-27.869 5.184-36.578 13.824-10.45 8.64-13.933 20.736-13.933 34.56s5.224 36.288 13.933 67.392l73.155 247.104c12.192 39.744 17.418 65.664 17.418 76.032 0 8.64-3.483 15.552-8.709 20.736s-13.934 6.912-24.386 6.912c-8.709 0-24.384-1.728-50.51-6.912v20.736l189.853 31.104z" />
<glyph unicode="&#xe054;" glyph-name="054" d="M545.362 80v90.438c52.603 7.038 94.958 24.81 126.869 53.49 31.717 28.68 47.77 67.389 47.77 115.95s-18.76 85.16-55.893 109.794c-29.782 20.41-69.043 37.477-117.779 51.026h-0.966v154.483c10.056-0.702 20.499-2.462 31.136-5.278 10.638-2.814 17.213-6.158 19.92-10.029 2.515-3.87 3.869-9.853 3.869-17.947v-47.506l94.571 5.278v123.869c-45.642 19.354-95.538 30.438-149.496 33.43v79.002h-72.525v-80.762c-51.443-6.51-92.445-23.93-123.002-52.258-30.557-28.502-45.835-64.397-45.835-107.682 0-24.632 4.254-45.922 12.958-64.045 8.509-18.299 24.174-35.19 46.802-51.026 22.434-15.835 58.794-30.264 109.077-42.933v-164.338c-20.114 0-35.586 1.76-46.416 5.28-10.83 3.518-17.598 7.037-20.114 10.909-2.707 3.87-3.867 9.853-3.867 18.122v50.85l-95.539-6.157v-130.731c48.736-20.587 104.048-31.672 165.936-33.432v-87.798h72.525zM545.362 259.117v137.066c36.552-13.547 54.925-35.014 54.925-64.221 0-38.006-18.373-62.288-54.925-72.845v0zM472.837 523.571c-33.458 13.899-50.090 35.893-50.090 65.805s16.632 50.146 50.090 60.702v-126.507z" />
<glyph unicode="&#xe055;" glyph-name="055" d="M440 816l28.8-506h72l43.2 506h-144zM440 206.499v-126.499h129.6v126.499h-129.6z" />
<glyph unicode="&#xe056;" glyph-name="056" d="M577.757 347.238c7.024 14.968 24.974 34.682 54.243 59.325 56.195 47.461 93.074 84.882 110.243 112.627 17.171 27.563 25.757 56.77 25.757 87.802 0 55.493-23.219 104.23-69.658 146.214-46.44 41.802-108.878 62.794-187.318 62.794-74.731 0-135.024-19.349-180.877-57.866-46.050-38.698-70.635-85.611-74.147-140.738l137.366-11.683c8.195 35.413 23.219 61.699 45.072 79.040s49.171 26.104 81.757 26.104c33.757 0 60.683-9.858 80.586-29.389 19.902-19.715 29.853-43.080 29.853-70.461 0-19.714-6.438-37.603-19.122-53.85-8.195-10.405-33.56-32.126-75.707-65.349-42.146-33.222-70.438-63.158-84.488-89.81-14.048-26.651-21.074-60.421-21.074-101.675 0-4.016 0.195-15.15 0.586-33.405h137.366c-0.781 38.517 2.536 65.35 9.562 80.318v0zM568.195 80v140.19h-137.366v-140.19h137.366z" />
<glyph unicode="&#xe057;" glyph-name="057" d="M144 450.693l283.077-282.693 452.923 452.307-107.838 107.693-342.538-342.045-175.224 174.987-110.4-110.25z" />
<glyph unicode="&#xe058;" glyph-name="058" d="M512 792l113.718-226.475 254.282-36.317-184-176.288 43.437-248.92-227.437 117.525-227.437-117.525 43.437 248.92-184 176.288 254.282 36.317 113.718 226.475z" />
<glyph unicode="&#xe059;" glyph-name="059" d="M528 816v-610.277l-247.213-125.723 47.213 266.288-200 188.586 276.394 38.85 123.606 242.277z" />
<glyph unicode="&#xe060;" glyph-name="060" d="M512 698.701c40.648 0 73.6-35.011 73.6-78.202 0-43.189-32.952-78.2-73.6-78.2s-73.6 35.011-73.6 78.2c0 43.19 32.952 78.202 73.6 78.202zM457.882 433.568v-353.568h108.237v34.499h86.587v92h-86.587v23h86.587v92h-86.587v112.069c75.21 24.554 129.882 98.97 129.882 186.931 0 107.974-82.378 195.501-184 195.501s-184-87.526-184-195.501c0-87.962 54.672-162.378 129.882-186.931z" />
<glyph unicode="&#xe061;" glyph-name="061" d="M496 80h56.47v34.499h90.354v92h-90.354v23h90.354v92h-90.354v112.069c78.48 24.554 135.53 98.97 135.53 186.931 0 107.974-85.96 195.501-192 195.501v-117.299c42.416 0 76.8-35.011 76.8-78.202 0-43.189-34.384-78.2-76.8-78.2v-462.299z" />
<glyph unicode="&#xe062;" glyph-name="062" d="M603.11 816h-177.666l-241.445-736h145.778l44.418 147.2h274.472l45.555-147.2h145.778l-236.89 736zM419.75 374.4l76.306 234.6c6.834 19.55 10.25 39.099 12.528 59.8h4.555c2.277-24.15 5.694-44.85 12.528-62.099l78.582-232.301h-184.499z" />
<glyph unicode="&#xe063;" glyph-name="063" d="M517.714 80c77.715 0 138.286 18.4 182.858 57.499 44.571 39.101 67.429 92 67.429 158.701 0 44.85-13.714 82.8-40 115-27.429 32.2-62.858 50.6-106.286 57.501v2.299c42.286 11.499 77.715 32.2 105.144 63.25 27.429 29.901 41.142 65.55 41.142 105.8 0 55.2-21.714 98.901-65.142 129.95-43.429 29.899-105.144 46-185.144 46h-261.714v-736h261.714zM476.571 668.8c96 0 145.142-23 145.142-67.85 0-25.301-12.571-44.851-35.427-58.651-24-13.8-56-20.699-97.144-20.699h-86.856v147.2h74.285zM496 374.4c38.858 0 69.714-6.901 92.571-19.55 21.715-12.65 33.142-29.899 33.142-51.749 0-24.15-11.427-42.55-34.285-56.35s-53.715-19.55-92.571-19.55h-92.571v147.2h93.714z" />
<glyph unicode="&#xe064;" glyph-name="064" d="M664.586 720l119.414-119.414-152.597-152.586 152.597-152.586-119.414-119.414-152.586 152.597-152.586-152.597-119.414 119.414 152.597 152.586-152.597 152.586 119.414 119.414 152.586-152.597 152.586 152.597zM0 448c0-282.773 229.227-512 512-512s512 229.227 512 512c0 282.773-229.227 512-512 512s-512-229.227-512-512z" />
<glyph unicode="&#xe065;" glyph-name="065" d="M386.077 576.971h192.566v-374.848l61.357-2.664v-71.459h-256v67.854l35.493 2.664c20.766 1.725 31.15 11.283 31.15 28.522v248.227c0 10.029-2.077 16.925-6.042 20.53-3.965 3.446-10.95 5.328-20.766 5.328l-37.758 1.723v74.123zM502.182 635.894c-24.354 0-43.987 6.112-59.091 18.334-15.102 12.224-22.466 27.738-22.466 46.856 0 18.962 7.363 34.79 22.466 47.64s34.738 19.275 59.091 19.275c24.355 0 44.178-6.426 59.659-19.275s23.221-28.678 23.221-47.64c0-19.118-7.741-34.632-23.221-46.856-15.482-12.222-35.304-18.334-59.659-18.334zM0 448c0-282.773 229.227-512 512-512s512 229.227 512 512c0 282.773-229.227 512-512 512s-512-229.227-512-512z" />
<glyph unicode="&#xe066;" glyph-name="066" d="M464 448c0 26.51 21.49 48 48 48s48-21.49 48-48c0-26.51-21.49-48-48-48s-48 21.49-48 48z" />
<glyph unicode="&#xe067;" glyph-name="067" d="M370.206 609.214h204.602v-468.56l65.192-3.33v-89.325h-272v84.819l37.71 3.33c22.066 2.155 33.098 14.104 33.098 35.651v310.285c0 12.536-2.206 21.155-6.419 25.661-4.211 4.309-11.634 6.659-22.064 6.659l-40.118 2.155v92.654zM493.57 682.867c-25.877 0-46.738 7.64-62.786 22.92-16.046 15.278-23.869 34.67-23.869 58.57 0 23.702 7.822 43.486 23.869 59.549s36.909 24.094 62.786 24.094c25.875 0 46.938-8.032 63.386-24.094 16.45-16.062 24.674-35.846 24.674-59.549 0-23.899-8.224-43.291-24.674-58.57-16.448-15.28-37.51-22.92-63.386-22.92zM80 960c-44.184 0-80-35.816-80-80v-864c0-44.184 35.816-80 80-80h864c44.184 0 80 35.816 80 80v864c0 44.184-35.816 80-80 80h-864z" />
<glyph unicode="&#xe068;" glyph-name="068" d="M659.234 741.595c65.662 0 118.893-49.544 118.893-110.659 0-61.122-53.23-110.666-118.893-110.666-65.667 0-118.904 49.544-118.904 110.666 0 61.115 53.237 110.659 118.904 110.659zM789.64 477.747h-106.123v-16.918c4.661-5.155 7.573-11.722 7.573-18.989 0-7.264-2.912-13.834-7.573-18.984v-17.21l-24.306-126.608-24.28 126.608v17.194c-4.662 5.166-7.582 11.731-7.582 19 0 7.267 2.92 13.838 7.582 18.994v16.914h-106.133c-49.902 0-90.363-37.653-90.363-84.101v-240.562h441.557v240.562c0.008 46.437-40.453 84.101-90.352 84.101zM880 126.014c0-7.734-6.736-14.014-15.061-14.014h-705.878c-8.314 0-15.061 6.28-15.061 14.014v0c0 7.747 6.747 14.016 15.061 14.016h705.878c8.325 0 15.061-6.269 15.061-14.016v0zM238.752 153.173c0 22.749 19.802 41.178 44.237 41.178s44.237-18.429 44.237-41.178h-88.474zM282.989 219.197c4.475 0 8.102-3.371 8.102-7.538 0-4.162-3.627-7.542-8.102-7.542s-8.104 3.381-8.104 7.542c0 4.166 3.629 7.538 8.104 7.538zM286.046 203.243c0-3.717 0-8.251-3.050-8.251s-3.051 4.523-3.051 8.251h6.101zM293.635 435.56v35.040c28.829 1.317 52.357 10.403 70.594 27.706 18.118 17.194 27.296 38.768 27.296 64.613 0 11.606-2.237 22.557-6.589 32.63s-10.587 18.726-18.707 26.059c-8.12 7.23-18.589 13.472-31.296 18.621-6.826 2.624-20.589 6.237-41.298 11.058v99.653c15.059-2.52 26.826-7.669 35.533-15.437 8.704-7.888 14.352-19.061 17.178-33.624l37.65 7.010c-3.765 24.309-14.706 43.478-32.827 57.493-14.237 10.947-33.413 17.414-57.533 19.605v14.014h-22.587v-14.014c-26.592-2.416-46.714-8.982-60.126-19.714-20.237-15.992-30.235-36.797-30.235-62.533 0-14.454 3.411-27.486 10.47-38.872 7.061-11.39 17.062-20.366 30.12-26.718 17.531-8.762 34.118-14.674 49.771-17.962v-114.542c-16.709 1.422-30.946 8.434-42.83 21.136-8.354 8.866-14.117 22.886-17.41 41.941l-37.651-7.010c1.413-19.494 6.822-35.92 16.002-49.282 9.178-13.466 20-23.216 32.706-29.237 12.592-6.022 28.946-10.184 49.184-12.594v-35.040h22.587zM271.048 655.995c-17.653 3.728-30.946 9.64-39.653 17.634-8.706 7.992-13.061 17.957-13.061 29.896 0 11.934 4.709 22.338 14.12 31.094 9.413 8.76 22.238 14.24 38.594 16.32v-94.944zM293.635 615.373c23.648-5.040 39.651-11.611 47.886-19.714s12.354-18.835 12.354-32.082c0-15.662-5.765-28.805-17.059-39.427-11.413-10.622-25.765-16.754-43.181-18.506v109.728z" />
<glyph unicode="&#xe069;" glyph-name="069" d="M526.080 784.080c-13.819 2.416-27.803-1.261-37.458-11.659l-109.582-110.181-0.013 72.654c0 20.579-16.859 36.317-36.13 36.317h-44.56c-20.474 0-36.13-16.949-36.13-36.317v-170.683c0-5.712 1.264-11.078 3.552-15.811l-125.189-125.821c-16.861-16.947-15.658-47.211 3.613-66.579 19.269-19.368 49.378-20.579 66.238-3.632l309.498 311.072 309.526-311.072c16.861-16.947 46.97-15.736 66.238 3.632 20.474 19.368 21.678 49.632 3.613 66.579l-344.438 346.21c-8.235 8.278-18.464 13.488-28.779 15.291zM551.246 772.421c-6.768 6.803-15.686 10.709-25.166 11.659 10.315-1.803 20.544-7.013 28.779-15.291l-3.613 3.632zM781.274 128.421h-1.203v216.685c-107.186 101.683-267.362 254.21-267.362 254.21s-178.242-179.157-249.296-254.21v-216.685c0-26.632 18.064-48.421 40.947-48.421h435.966c22.882 0 40.947 21.789 40.947 48.421z" />
<glyph unicode="&#xe070;" glyph-name="070" d="M759.632 259.501c0 0-59.435-4.054-122.832-8.107-23.774 27.024-19.811 94.587-17.17 125.666 25.094 27.026 46.227 63.509 59.434 102.694 1.322-2.702 2.642-4.053 5.283-5.405 22.454-12.16 17.171 37.835 17.171 59.456 1.32 21.619 17.17 49.995 0 49.995-3.963 0-7.925-1.35-10.566-1.35-2.642 121.611-31.699 217.55-175.664 217.55-153.21 0-174.342-95.939-175.662-220.253-2.642 2.702-6.605 4.053-14.528 4.053-17.171 0-1.322-28.376 0-49.995 1.32-21.621-3.963-71.616 17.17-59.456 2.642 1.352 5.283 5.405 6.603 9.459 11.888-40.538 33.019-77.021 56.794-105.397 2.642-31.078 6.605-101.344-17.17-128.37-63.397 4.054-122.832 8.109-122.832 8.109-58.115 0-105.662-48.646-105.662-108.101v-54.050h703.973v54.050c1.322 60.806-46.227 109.451-104.341 109.451v0z" />
<glyph unicode="&#xe071;" glyph-name="071" d="M720.096 239.904c-114.882-114.882-301.31-114.882-416.192 0s-114.882 301.31 0 416.192c114.882 114.882 301.31 114.882 416.192 0 115.086-114.882 115.086-301.31 0-416.192zM251.778 708.222c-143.704-143.706-143.704-376.739 0-520.445 143.706-143.704 376.739-143.704 520.443 0 143.706 143.706 143.706 376.739 0 520.445-143.704 143.704-376.738 143.704-520.443 0zM677.578 484.795h-128.782v128.782c0 20.237-16.558 36.794-36.795 36.794s-36.795-16.557-36.795-36.794v-128.782h-128.782c-20.237 0-36.794-16.558-36.794-36.795s16.557-36.795 36.794-36.795h128.782v-128.782c0-20.237 16.558-36.794 36.795-36.794s36.795 16.557 36.795 36.794v128.782h128.782c20.237 0 36.794 16.558 36.794 36.795s-16.557 36.795-36.794 36.795z" />
<glyph unicode="&#xe072;" glyph-name="072" d="M720.096 239.904c-114.882-114.882-301.31-114.882-416.192 0s-114.882 301.31 0 416.192c114.882 114.882 301.31 114.882 416.192 0 115.086-114.882 115.086-301.31 0-416.192zM251.778 708.222c-143.704-143.706-143.704-376.739 0-520.445 143.706-143.704 376.739-143.704 520.443 0 143.706 143.706 143.706 376.739 0 520.445-143.704 143.704-376.738 143.704-520.443 0zM677.578 484.795h-331.155c-20.237 0-36.794-16.558-36.794-36.795s16.557-36.795 36.794-36.795h331.155c20.237 0 36.794 16.558 36.794 36.795s-16.557 36.795-36.794 36.795z" />
<glyph unicode="&#xe100;" glyph-name="100" d="M0 448c0 282.773 229.227 512 512 512s512-229.227 512-512c0-282.773-229.227-512-512-512s-512 229.227-512 512z" />
<glyph unicode="&#xe101;" glyph-name="101" d="M0 960h1024v-1024h-1024v1024z" />
<glyph unicode="&#xe102;" glyph-name="102" d="M160 960h704c88.366 0 160-71.634 160-160v-704c0-88.366-71.634-160-160-160h-704c-88.366 0-160 71.634-160 160v704c0 88.366 71.634 160 160 160z" />
<glyph unicode="&#xe103;" glyph-name="103" d="M469.205 865.43c23.635 40.76 61.955 40.76 85.59 0l459.029-791.629c23.635-40.76 4.696-73.802-42.302-73.802h-919.043c-46.998 0-65.938 33.042-42.302 73.802l459.029 791.629z" />
<glyph unicode="&#xe150;" glyph-name="150" d="M592.318 166.256h-31.342v110.23h-120.55v-110.23h-31.344v233.786h31.344v-95.694h120.55v95.694h31.342v-233.786zM505.522 615.658c0 0-178.414-179.277-249.541-254.378v-216.827c0-26.65 18.083-48.453 40.987-48.453h436.395c22.906 0 40.987 21.803 40.987 48.453v216.827c-108.496 101.75-268.829 254.378-268.829 254.378zM517.712 799.28c-13.834 2.418-27.842-1.21-37.506-11.614l-109.715-110.253 0.014 72.702c0 20.592-16.878 36.339-36.166 36.339h-44.603c-20.494 0-36.165-16.958-36.165-36.339v-170.797c0-5.712 1.307-11.061 3.595-15.794l-125.352-125.931c-16.877-16.958-15.672-47.242 3.616-66.624 19.288-19.381 49.426-20.592 66.302-3.634l309.808 311.328 309.826-311.328c16.877-16.958 47.014-15.747 66.302 3.634 20.494 19.382 21.699 49.666 3.618 66.624l-344.776 346.438c-8.245 8.283-18.474 13.445-28.798 15.248zM542.893 787.666c-6.774 6.808-15.691 10.664-25.181 11.614 10.325-1.803 20.554-6.965 28.798-15.248l-3.618 3.634z" />
<glyph unicode="&#xe151;" glyph-name="151" d="M386.286 495.654h-91.429v115.459h91.429v-115.459zM557.714 495.654h-91.427v115.459h91.427v-115.459zM729.142 495.654h-91.429v115.459h91.429v-115.459zM386.286 322.466h-91.429v115.459h91.429v-115.459zM557.714 322.466h-91.427v115.459h91.427v-115.459zM729.142 322.466h-91.429v115.459h91.429v-115.459zM786.286 667.557l-0.088 1.286h45.802l-327.342 147.157-312.658-147.157h45.843l-0.13-1.286v-587.557h217.144v184.736h114.285v-184.736h217.144v587.557z" />
<glyph unicode="&#xe152;" glyph-name="152" d="M203.11 448l-51.11 154.445h51.11l103.334-103.334h205.555l-154.445 308.89h51.112l256.666-308.89h103.334c0 0 103.333 0 103.333-51.11 0-51.112-103.333-51.112-103.333-51.112h-103.334l-256.666-308.888h-51.112l154.445 308.888h-205.555l-103.334-103.333h-51.11l51.11 154.445z" />
<glyph unicode="&#xe153;" glyph-name="153" d="M211.11 440l-51.11-154.445h51.11l103.334 103.333h205.555l-154.445-308.888h51.112l256.666 308.888h103.334c0 0 103.333 0 103.333 51.112s-103.333 51.112-103.333 51.112h-103.334l-256.666 308.888h-51.112l154.445-308.888h-205.555l-103.334 103.333h-51.11l51.11-154.445z" />
<glyph unicode="&#xe154;" glyph-name="154" d="M820.89 448l51.11 154.445h-51.11l-103.334-103.334h-205.555l154.445 308.89h-51.112l-256.666-308.89h-103.334c0 0-103.333 0-103.333-51.11 0-51.112 103.333-51.112 103.333-51.112h103.334l256.666-308.888h51.112l-154.445 308.888h205.555l103.334-103.333h51.11l-51.11 154.445z" />
<glyph unicode="&#xe155;" glyph-name="155" d="M779.49 707.222c-8.17 40.594-33.733 56.792-72.107 73.158-37.794 15.819-128.262 34.91-195.363 35.619-67.010-0.709-157.478-19.8-195.386-35.619-38.226-16.366-63.824-32.565-71.56-73.158l-29.074-224.528v-309.824h49.744v-48.363c-0.147-59.342 85.248-59.342 85.533 0v48.363h321.998v-48.363c-0.182-59.342 85.224-59.342 84.962 0v48.363h49.763v309.824l-28.51 224.528zM390.424 759.048h243.168c24.234 0.093 24.234-36.358 0-36.262h-243.168c-24.131-0.096-24.131 36.355 0 36.262zM308.237 270.214c-22.514-0.235-40.842 18.4-40.797 41.459-0.045 22.854 18.283 41.437 40.797 41.437 22.731 0 41.083-18.582 40.798-41.437 0.285-23.059-18.067-41.694-40.798-41.459zM508.925 459.064h-216.888c-21.434-0.17-25.894 15.323-24.051 31.088l22.368 162.962c3.344 19.68 9.965 32.734 35.211 32.805h372.853c25.394-0.070 32.027-13.125 35.222-32.805l22.379-162.962c1.979-15.765-2.493-31.245-24.062-31.088h-223.032zM715.757 270.214c-22.595-0.235-40.957 18.4-40.821 41.459-0.136 22.854 18.203 41.437 40.821 41.437 22.662 0 41.002-18.582 40.808-41.437 0.194-23.059-18.146-41.694-40.808-41.459z" />
<glyph unicode="&#xe156;" glyph-name="156" d="M560.258 628.198h-118.048v58.469c0 5.482 5.533 10.962 11.067 10.962h97.758c5.533 0 11.067-5.48 11.067-10.962-1.845 0-1.845-58.469-1.845-58.469v0zM794.509 628.198h-73.779v31.061h-47.957v-31.061h-71.936v58.469c0 27.408-22.134 49.333-49.802 49.333h-97.758c-27.669 0-49.803-21.925-49.803-49.333v-58.469h-71.934v31.061h-47.958v-31.061h-70.090c-29.514 0-53.491-23.754-53.491-52.989v-378.222c0-29.234 23.978-52.987 53.491-52.987h70.090v484.198h47.958v-484.198h341.234v484.198h47.957v-484.198h73.779c29.512 0 53.491 23.754 53.491 52.987v378.222c0 29.235-23.979 52.989-53.491 52.989v0z" />
<glyph unicode="&#xe157;" glyph-name="157" d="M550.678 487.742l97.218-49.226c6.822-3.45 17.656-2.864 24.082 1.315l196.248 127.627c6.426 4.179 5.933 10.064-1.090 13.077l-66.085 28.342c-7.029 3.013-18.4 2.757-25.298-0.557l-224.95-108.269c-6.896-3.322-6.949-8.853-0.125-12.31zM258.014 603.872c-6.816 3.232-16.906 1.616-22.426-3.584l-71.835-67.64c-5.518-5.194-4.614-12.4 2.010-16.016l198.824-108.17c6.63-3.608 16.84-2.63 22.698 2.171l91.39 74.997c5.851 4.803 5.062 11.371-1.746 14.595l-218.915 103.646zM508.003 497.483c1.461 0 3.549 5.368 3.997 12.387-0.72-7.019-5.459-12.387-3.997-12.387zM498.163 722.475c7.397 2.795 13.63-1.504 13.837-9.554 0.118 8.058 6.27 12.363 13.675 9.59l258.006-92.891c7.411-2.773 17.517 0.090 22.469 6.358l71.202 90.23c4.946 6.275 2.76 13.107-4.858 15.189l-271.224 73.982c-7.626 2.082-18.010-1.262-23.096-7.426l-51.534-62.573c-5.072-6.163-10.459-11.093-11.96-10.95-1.494 0.15-7.979 4.088-14.403 8.77l-71.392 51.971c-6.426 4.674-17.915 6.763-25.525 4.637l-252.339-70.518c-7.61-2.126-9.302-8.552-3.754-14.28l77.443-80.024c5.542-5.734 16.133-8.133 23.53-5.336l249.923 92.824zM512 463.941c-0.357 7.338-5.205 9.314-11.062 4.374l-104.584-80.514c-6.080-5.141-16.73-6.2-23.678-2.374l-124.053 69.075c-6.941 3.832-12.622 0.376-12.622-7.674v-227.803c0-8.056 5.837-17.466 12.968-20.907l240.878-116.843h9.186c7.131-3.443 12.968 0.33 12.968 8.387v374.278zM524.557 471.509c-6.904 3.894-12.557 0.49-12.557-7.568v-373.573c0-8.048 5.851-11.851 12.998-8.44h14.838l235.165 116.25c7.147 3.421 12.998 12.8 12.998 20.856v267.070c0 8.058-5.453 11.101-12.107 6.779l-110.914-77.566c-6.661-4.33-17.754-4.691-24.656-0.782l-115.766 56.974z" />
<glyph unicode="&#xe158;" glyph-name="158" d="M307.077 586c0 25.405 20.389 46 45.539 46s45.538-20.595 45.538-46c0-25.405-20.387-46-45.538-46s-45.539 20.595-45.539 46zM216 586c0-76.216 136.616-414 136.616-414s136.614 337.784 136.614 414c0 76.216-61.163 138-136.614 138-75.453 0-136.616-61.784-136.616-138zM534.77 632c0 50.811 40.776 92 91.077 92s91.077-41.189 91.077-92c0-50.811-40.776-92-91.077-92s-91.077 41.189-91.077 92zM443.693 632c0-101.622 182.154-552 182.154-552s182.154 450.378 182.154 552c0 101.622-81.552 184-182.154 184s-182.154-82.378-182.154-184zM216 218h273.23v-46h-273.23v46z" />
<glyph unicode="&#xe159;" glyph-name="159" d="M558.79 610.912l-26.45-26.435 38.518-38.507 26.435 26.435-38.504 38.507zM636.027 533.664l-26.421-26.432 38.504-38.507 26.435 26.44-38.518 38.499zM610.843 816l80.491-80.49c-26.112-30.133-24.846-75.763 3.789-104.402 28.635-28.627 74.261-29.89 104.406-3.781l80.47-80.49-128.563-128.573-38.158 38.162-26.443-26.438 38.16-38.152-311.835-311.837-81.2 81.211c20.776 29.893 17.848 71.293-8.797 97.93-26.669 26.666-68.056 29.598-97.95 8.813l-81.213 81.203 311.837 311.834 37.784-37.784 26.429 26.435-37.784 37.789 128.578 128.57z" />
<glyph unicode="&#xe160;" glyph-name="160" d="M511.939 550.206h-238.978l45.525 127.645c5.69 17.931 14.23 30.882 34.147 31.072h318.691c19.917-0.19 28.454-13.141 34.144-31.072l45.525-127.645h-239.054zM259.795 378.755c-28.181 0-51.032 24.49-51.032 54.693 0 30.198 22.851 54.685 51.032 54.685s51.029-24.486 51.029-54.685c0-30.203-22.848-54.693-51.029-54.693zM764.162 378.755c-28.179 0-51.029 24.49-51.029 54.693 0 30.198 22.85 54.685 51.029 54.685 28.182 0 51.029-24.486 51.029-54.685 0-30.203-22.846-54.693-51.029-54.693zM585.221 768h-231.877c-46.477 0-71.136-26.395-82.518-57.277l-60.461-162.166c-23.954-3.192-66.365-32.458-66.365-87.84v-206.261h58.8v-65.942c0-81.162 110.474-80.206 110.474 0v65.942h397.451v-65.942c0-80.206 110.475-81.162 110.475 0v65.942h58.8v206.261c0 55.382-42.456 84.648-66.406 87.84l-60.464 162.166c-11.382 30.882-36.042 57.277-82.518 57.277h-85.39z" />
<glyph unicode="&#xe161;" glyph-name="161" d="M495.923 800.264c-148.726-5.262-270.749-102.474-323.69-249.805-8.654-24.083-2.619-37.19 5.402-27.77 22.328 26.216 52.934 42.762 87 42.762 40.578 0 76.526-23.235 98.736-59.021 11.576-16.898 15.344-17.987 25.898-0.419 26.859 44.632 60.093 58.69 106.662 59.499 0-156.394 0.080-347.466 0.080-378.43 0-38.021-26.235-75.498-58.608-75.498-32.365 0-58.622 26.259-58.622 64.274h-32.504c0-59.107 40.79-95.856 91.126-95.856s91.157 47.965 91.157 107.080c0 38.84-0.242 222.597-0.366 378.445 44.875-0.662 78.667-13.211 106.522-59.514 10.576-17.568 14.314-16.478 25.898 0.419 22.224 35.778 58.181 59.021 98.758 59.021 34.035 0 64.672-16.538 86.992-42.762 8.029-9.421 14.056 3.686 5.402 27.77-52.92 147.229-174.89 244.403-323.499 249.79 0 25.694 0-1.59 0 15.75h-32.424l0.082-15.736z" />
<glyph unicode="&#xe162;" glyph-name="162" d="M213.576 552.050l88.184-379.288c0 0 13.227-18.061 61.73-18.061 48.501 0 79.365 27.091 132.275 27.091 61.73 0 83.774-27.091 141.096-27.091 57.318 0 74.955 18.061 74.955 18.061l88.184 379.288-295.416 112.883-291.008-112.883zM456.083 832c-30.866 0-30.866-31.608-30.866-31.608h163.141c0 0 0 31.608-30.864 31.608h-101.411zM341.443 628.81l163.141 67.731 163.139-67.731v135.461h-326.28v-135.461zM623.632 123.093c-44.093 0-88.184 27.091-136.686 27.091-44.091 0-88.184-27.091-136.683-27.091-52.912 0-88.184 22.576-110.23 36.123-26.456 13.546-44.093-13.547-22.046-27.093 0 0 44.093-36.123 132.277-36.123 48.499 0 83.774 27.093 132.275 27.093 52.91 0 83.776-27.093 136.685-27.093 83.776 0 132.277 36.123 132.277 36.123 22.045 13.546 0 40.638-22.046 22.578-26.454-18.062-39.683-31.608-105.821-31.608v0z" />
<glyph unicode="&#xe163;" glyph-name="163" d="M818.712 547.424c33.89 0 61.288 27.088 61.288 60.405 0 33.328-27.398 60.234-61.288 60.234-33.717 0-61.202-26.906-61.202-60.234 0-33.317 27.485-60.405 61.202-60.405zM788.517 112.638c29.563-17.293 67.707-7.842 85.338 21.373l-21.426 12.653c-10.486-17.456-33.443-22.981-50.981-12.653l-644.787 373.142-12.661-21.298 644.517-373.218zM555.11 778.365c-37.238 24.678-87.587 14.965-112.714-21.915-13.829-20.13-17.627-45.616-10.85-66.291l42.845-138.282-129.264-40.632c-16.179-6.411-28.653-21.384-30.824-39.739-3.349-26.906 16.995-44.73 44.387-47.931 6.235-0.709 10.392 1.062 16.179 2.493l176.453 57.563c12.93 4.634 27.118 17.286 28.469 28.334 1.006 8.016 3.622 14.792 1.912 19.602l-26.853 94.618 106.117-62.186 12.837-90.699c1.078-15.859 8.41-27.261 20.787-34.027l138.675-79.838c15.179-8.205 34.341-2.678 42.664 12.467 8.41 14.97 2.702 34.034-12.477 42.237l-109.638 63.078-12.664 161.627c-1.898 19.33-12.563 36.704-28.104 47.398l-157.938 92.123z" />
<glyph unicode="&#xe164;" glyph-name="164" d="M144 169.915h736v-89.915h-736v89.915zM144 664.448h736v-44.958h-736v44.958zM190 214.872h644v-44.958h-644v44.958zM144 664.45l371.896 151.55 364.104-151.55h-736zM190 574.534h92v-359.661h-92v359.661zM328 574.534h92v-359.661h-92v359.661zM604 574.534h92v-359.661h-92v359.661zM742 574.534h92v-359.661h-92v359.661z" />
<glyph unicode="&#xe165;" glyph-name="165" d="M244.957 452.974h137.803c20.962 0 38.008 16.862 38.008 37.584v15.962c0 20.738-17.046 37.598-38.008 37.598h-137.803c-20.947 0-38.008-16.861-38.008-37.598v-15.962c0.016-20.722 17.061-37.584 38.008-37.584zM873.205 437.306h-683.63v236.144c0 12.461-10.198 22.55-22.795 22.55-12.581 0-22.779-10.090-22.779-22.55v-450.915c0-12.461 10.198-22.534 22.779-22.534 12.597 0 22.795 10.074 22.795 22.534v81.070h660.851v-81.070c0-12.461 10.198-22.534 22.779-22.534 12.597 0 22.795 10.074 22.795 22.534v192.222c0 12.445-10.198 22.549-22.795 22.549z" />
<glyph unicode="&#xe200;" glyph-name="200" d="M634.667 266.56c0 14.846 12.674 26.88 28.307 26.88s28.307-12.034 28.307-26.88c0-14.845-12.674-26.88-28.307-26.88s-28.307 12.035-28.307 26.88zM483.691 266.56c0 14.846 12.675 26.88 28.309 26.88s28.309-12.034 28.309-26.88c0-14.845-12.675-26.88-28.309-26.88s-28.309 12.035-28.309 26.88zM332.718 266.56c0 14.846 12.674 26.88 28.307 26.88s28.307-12.034 28.307-26.88c0-14.845-12.674-26.88-28.307-26.88s-28.307 12.035-28.307 26.88zM144 311.36v-2.893c0-76.283 65.65-140.467 143.678-140.467h448.643c78.029 0 143.678 64.184 143.678 140.467v2.893h-103.787l-75.494 71.68h-69.118l-0.005 71.773h-94.358l0.006-71.773h-49.278l0.027 71.773h-94.358l-0.026-71.773h-70.326l-75.494-71.68h-103.787zM547.68 728v-155.307h37.742l-75.485-77.653-75.49 77.653h37.744v155.307h75.488z" />
<glyph unicode="&#xe201;" glyph-name="201" d="M834 471.272v-232.726h-644v232.726h644zM190 657.454h644v-93.091h-644v93.091zM144 704v-512h736v512h-736z" />
<glyph unicode="&#xe202;" glyph-name="202" d="M832.576 830.082c-6.117 3.728-14.266 1.853-18.059-4.154l-53.541-84.79c-3.514-5.573-6.654-10.67-6.654-10.67l-105.883-167.698c-4.992 7.102-11.35 13.421-19.326 18.283l-4.456 2.72-146.578-232.146-10.506 6.403 146.581 232.15-92.003 56.107-277.552-439.579 77.357-47.179c0.030 12.568 3.141 25.229 10.323 36.605l1.384 2.194c22.214 32.365 67.643 40.624 101.17 18.459 10.715-7.075 19.082-16.213 24.589-26.696l190.837 302.232c5.472 8.669 8.488 18.128 9.477 27.587l122.085 193.355 0.637-0.39c6.11-3.728 14.266-1.853 18.061 4.157l53.533 84.787c3.794 6.010 1.88 14.016-4.23 17.746l-17.243 10.517zM476.629 674.054c-30.914 18.853-71.098 9.603-90.282-20.779l-208.41-330.070c-15.738-24.923-12.229-56.074 6.605-76.834l-11.358-24.274 29.406-18.376 15.269 19.301 16.55-10.101 277.557 439.582-35.338 21.55zM519.301 312.093c-51.427 27.874-116.131 12.867-148.912-36.23l-2.182-3.557c-32.109-52.25-16.67-121.328 34.714-156.227 52.779-35.854 123.91-22.381 158.883 29.984 34.971 52.365 20.242 123.93-32.531 159.784-3.301 2.242-6.542 4.381-9.971 6.246z" />
<glyph unicode="&#xe203;" glyph-name="203" d="M430.096 652.333c41.787 0 74.87 33.482 74.87 73.834 0 41.21-33.954 73.834-74.87 73.834s-74.87-33.483-74.87-73.834c0-41.21 33.954-73.834 74.87-73.834v0 0zM373.509 562.186c-13.059 84.995 110.563 110.75 130.587 24.038l33.952-166.555h126.235c36.565 0 55.717-29.19 55.717-55.805v-225.795c0-54.947-79.222-54.947-79.222 0.858 0 51.512 0 176 0 176h-161.059c-37.434 0-60.941 25.757-67.034 54.947l-39.176 192.312zM522.378 116.605h-121.882l15.67 133.074c16.541-7.726 33.082-11.162 50.494-11.162h40.917l14.8-121.912zM582.448 299.474h-106.211c-38.306 0-69.646 22.322-79.222 64.39l-33.954 165.698c-8.706 40.35-66.165 27.472-58.328-12.019l35.693-172.566c6.094-24.898 17.411-46.362 33.083-63.531v0-185.445h176.728v141.659h33.082c40.917 0.858 40.917 61.814-0.87 61.814v0z" />
<glyph unicode="&#xe204;" glyph-name="204" d="M284.251 626.162h-109.373c-17.056 0-30.878-13.95-30.878-31.141v-435.888c0-17.194 13.822-31.133 30.878-31.133h109.373v498.162zM849.122 626.162h-109.373v-498.162h109.373c17.061 0 30.878 13.939 30.878 31.133v435.888c0 17.198-13.826 31.141-30.878 31.141zM442.669 531.509c8.314 0 15.053-6.795 15.053-15.178 0-8.381-6.739-15.179-15.053-15.179s-15.051 6.798-15.051 15.179c0 8.382 6.738 15.178 15.051 15.178zM325.426 626.162v-498.162h373.152v498.162h-373.152zM527.202 338.763l-140.723 141.878 16.075 76.136 75.515 16.208 140.728-141.882-91.595-92.341zM392.765 646.925v32.858c0 17.202 13.821 31.133 30.878 31.133h176.71c17.067 0 30.878-13.931 30.878-31.133v-32.858h56.619v32.858c0 48.642-39.246 88.218-87.498 88.218h-176.71c-48.24 0-87.501-39.57-87.501-88.218v-32.858h56.622z" />
<glyph unicode="&#xe205;" glyph-name="205" d="M831.998 448c0 11.043-8.954 20.003-20.003 20.003h-58.432l72.576 72.584c7.814 7.808 7.814 20.472 0 28.288-7.816 7.808-20.466 7.808-28.282 0l-100.856-100.878h-136.725l58.333 58.333h92.109c11.051 0 20.003 8.952 20.003 20.003 0 11.050-8.952 20.003-20.003 20.003h-52.109l79.658 79.659c7.814 7.808 7.814 20.472 0 28.28-7.814 7.816-20.474 7.816-28.288 0l-76.699-76.714v46.221c0 11.045-8.954 20.005-20.005 20.005-11.050 0-20.003-8.954-20.003-20.005v-86.221l-61.275-61.277v136.518l100.856 100.85c7.814 7.808 7.814 20.474 0 28.282-7.816 7.814-20.474 7.814-28.288 0l-72.562-72.57v58.632c0 11.050-8.952 20.003-20.003 20.003-11.043 0-20.003-8.954-20.003-20.003v-58.632l-72.568 72.57c-7.808 7.814-20.474 7.814-28.282 0-7.814-7.808-7.814-20.474 0-28.282l100.856-100.85v-136.518l-61.275 61.277v86.221c0 11.045-8.954 20.005-20.003 20.005-11.051 0-20.005-8.954-20.005-20.005v-46.221l-76.707 76.707c-7.808 7.814-20.472 7.814-28.28 0-7.814-7.808-7.814-20.474 0-28.282l79.658-79.658h-52.109c-11.043 0-20.003-8.954-20.003-20.005s8.952-20.003 20.003-20.003h92.109l58.333-58.333h-136.725l-100.856 100.872c-7.808 7.814-20.474 7.814-28.282 0-7.814-7.808-7.814-20.474 0-28.282l72.576-72.576h-58.432c-11.050-0.006-20.003-8.96-20.003-20.003 0-11.051 8.954-20.003 20.003-20.003h58.426l-72.57-72.57c-7.814-7.814-7.814-20.48 0-28.288 3.904-3.904 9.024-5.859 14.144-5.859s10.234 1.955 14.144 5.859l100.856 100.858h136.71l-58.331-58.333h-92.102c-11.043 0-20.003-8.954-20.003-20.003 0-11.051 8.952-20.003 20.003-20.003h52.102l-79.651-79.645c-7.814-7.808-7.814-20.48 0-28.288 3.904-3.904 9.024-5.859 14.144-5.859s10.232 1.955 14.136 5.859l76.715 76.728v-46.229c0-11.051 8.952-20.003 20.003-20.003s20.003 8.952 20.003 20.003v86.229l61.269 61.27v-136.733l-100.856-100.85c-7.814-7.808-7.814-20.474 0-28.282 3.904-3.91 9.024-5.859 14.144-5.859s10.234 1.949 14.138 5.859l72.574 72.57v-58.432c0-11.043 8.954-19.997 19.997-19.997 11.051 0 20.003 8.954 20.003 20.003v58.432l72.568-72.568c3.912-3.912 9.032-5.859 14.144-5.859 5.114 0 10.226 1.947 14.138 5.859 7.814 7.808 7.814 20.472 0 28.28l-100.85 100.843v136.733l61.277-61.277v-86.222c0-11.051 8.952-20.003 20.003-20.003 11.050 0 20.003 8.952 20.003 20.003v46.222l76.707-76.715c3.91-3.904 9.030-5.859 14.144-5.859 5.112 0 10.226 1.955 14.136 5.859 7.816 7.808 7.816 20.48 0 28.288l-79.664 79.645h52.109c11.051 0 20.003 8.954 20.003 20.003 0 11.051-8.952 20.003-20.003 20.003h-92.109l-58.333 58.333h136.739l100.85-100.85c3.904-3.904 9.024-5.859 14.136-5.859 5.114 0 10.234 1.955 14.138 5.859 7.814 7.808 7.814 20.474 0 28.288l-72.562 72.555h58.424c11.043 0 19.997 8.952 19.997 20.003v0z" />
<glyph unicode="&#xe206;" glyph-name="206" d="M369.339 677.998c0 76.219 62.974 138.002 140.661 138.002 77.685 0 140.661-61.782 140.661-138.002 0-76.214-62.976-137.998-140.661-137.998s-140.661 61.784-140.661 137.998zM295.533 80h445.090c2.504 17.171 24.198 349.765-85.426 414h-274.24c-109.624-64.235-115.333-367.73-85.424-414z" />
<glyph unicode="&#xe207;" glyph-name="207" d="M439.384 381.45v133.923h-187.898c-23.794 0-43.486-21.362-43.486-45.189v-88.734h231.384zM816 381.45v88.734c0 23.827-19.693 45.189-43.486 45.189h-187.898v-133.923h231.384zM751.179 144c23.795 0 41.026 19.718 41.026 43.546v175.827h-206.768v-219.373h165.742zM273.642 144h165.742v219.373h-206.768v-175.827c0-24.648 17.23-43.546 41.026-43.546v0zM464 515.373h97.642v-371.373h-97.642v371.373zM646.974 752c-41.026 0-77.128-23.005-95.179-59.157v0 2.464c-1.642-3.285-3.282-5.75-4.923-9.037l-27.077-55.87-27.077 56.691c-1.642 3.286-3.283 4.931-4.923 8.216v-2.464c-18.051 36.152-54.154 59.157-95.179 59.157-59.898 0-108.309-49.298-108.309-109.275 0-59.979 48.411-109.275 108.309-109.275h254.358c59.898 0 108.307 49.296 108.307 109.275s-48.41 109.275-108.307 109.275v0 0zM392.616 701.882c21.333 0 40.205-11.504 50.051-31.222l13.949-27.934h1.64l15.59-33.686 11.486-24.65h-92.717c-32 0-58.258 26.293-58.258 58.336 0 32.864 26.258 59.157 58.258 59.157zM646.974 701.882c32 0 58.256-26.293 58.256-58.336s-26.256-58.334-58.256-58.334h-93.539l11.488 23.827 16.41 33.686h0.821l13.949 27.934c10.667 18.898 29.539 31.222 50.872 31.222z" />
<glyph unicode="&#xe209;" glyph-name="209" d="M374 298.933l506 126.134v229.333h-46v137.6h-138v-137.6h-46v-229.333h46l-322-80.267v172h-46v137.6h-138v-137.6h-46v-275.2l184 45.867h46v11.466zM650 104l-138 229.333-138-229.333h276z" />
<glyph unicode="&#xe210;" glyph-name="210" d="M680.965 80c24.544 0 45.347 18.83 47.376 42.864 2.142 25.197-16.928 47.803-42.506 50.386l-5.213 0.307-1.133 0.006c-1.173 0.024-2.97 0.070-5.299 0.165-4.314 0.179-11.141 0.55-19.232 1.342-2.587 0.248-5.326 0.557-8.128 0.901-19.347 1.622-36.749 3.522-53.067 5.808-27.342 3.866-48.805 8.269-67.563 13.854-1.886 0.563-3.814 1.253-5.93 2.128-3.96-2.781-7.416-6.078-10.274-9.803-15.787-20.594-11.602-49.995 9.314-65.53 14.763-10.88 31.706-19.208 53.341-26.203 15.47-4.954 32.16-8.736 51.018-11.574 24.477-3.64 44.493-4.472 54.15-4.645l3.146-0.006zM530.928 93.835c-7.901 4.205-15.459 8.95-22.616 14.216-14.046 10.429-23.12 25.613-25.562 42.749-2.427 17.139 2.056 34.174 12.646 47.997 2.398 3.106 5.141 6.050 8.2 8.779-20.502 16.557-29.018 43.664-21.203 68.904 4.8 15.515 15.488 28.73 29.691 36.934-17.774 17.131-24.262 42.531-16.518 66.123 5.915 18.006 19.43 32.39 36.89 39.694-23.901 15.765-34.803 45.197-26.088 72.866 8.587 27.272 33.846 45.605 62.851 45.605 6.598 0 13.174-0.984 19.533-2.92 7.245-2.224 16.946-4.378 27.344-6.077 15.203-2.491 33.949-4.429 54.238-5.59 16.928-0.973 35.288-1.464 54.549-1.464 3.286 0 6.571 0.013 9.858 0.038-20.246 5.131-41.549 9.744-65.379 14.186-58.723 10.952-108.472 17.859-147.92 20.544-3.602-3.278-6.629-6.422-9.486-9.821-7.717-9.195-16.43-20.226-22.547-32.283-6.386-12.602-9.373-24.736-9.389-38.16 0-8.947 1.346-18.123 4.115-28.034 4.56-16.352 6.862-32.781 6.862-48.838 0.024-44.418-17.306-85.173-50.152-117.877-32.949-32.832-78.827-51.662-125.856-51.662-16.677 0-33.237 2.325-49.238 6.907-4.845 1.392-7.629 6.397-6.219 11.157 1.13 3.814 4.734 6.48 8.771 6.48 0.88 0 1.733-0.122 2.565-0.358 14.328-4.102 29.171-6.192 44.122-6.192 42.184 0 83.323 16.883 112.858 46.309 29.333 29.285 44.846 65.669 44.859 105.237 0 14.474-2.083 29.298-6.216 44.072-3.155 11.36-4.757 22.395-4.757 32.8 0 16.115 3.699 31.234 11.317 46.205 6.886 13.586 15.987 25.184 24.805 35.688 1.054 1.266 4.397 4.896 8.598 9.426 7.56 8.181 17.918 19.381 22.021 24.531 25.173 31.566 43.075 66.693 51.762 101.582 4.326 17.291 6.517 34.512 6.501 51.178 0 17.253-2.317 28.6-3.315 32.678-5.573 22.704-26.018 38.557-49.722 38.557-4.043 0-8.099-0.478-12.072-1.424-26.23-6.232-42.549-31.931-37.947-59.754 0.43-2.645 0.642-5.936 0.642-10.058-0.014-14.315-3.342-30.072-9.587-45.549-10.099-24.8-26.674-47.989-50.682-70.883-20.566-19.586-46.254-38.245-76.349-55.448-4.174-2.382-7.546-4.971-10.93-8.382-22.363-22.538-42.925-47.133-61.114-73.107l-1.096-1.554-82.565-0.051v-395.942c73.563 0 304.31-0.038 338.928-0.013zM736.501 189.354c25.846 0 47.179 20.69 47.538 46.128 0.256 17.56-9.334 33.502-25.048 41.829-8.203-0.205-18.904-0.39-31.406-0.39-32.502 0.021-62.894 1.195-90.312 3.522-18.346 1.554-34.747 3.546-50.149 6.096-18.632 3.106-34.704 6.843-49.163 11.426-2.888 0.92-5.789 2.096-8.818 3.579-14.030-5.037-24.904-16.27-29.246-30.296-3.702-11.97-2.458-24.621 3.517-35.65 5.97-11.029 15.958-19.112 28.102-22.755 17.832-5.315 38.432-9.515 64.821-13.24 19.661-2.754 41.792-5.035 65.768-6.792 37.69-2.755 67.88-3.362 73.552-3.453l0.845-0.003zM727.584 294.92c26.834 0 45.723 0.851 47.794 0.941 26.232 1.266 46.493 23.266 45.205 49.030-1.243 24.946-22.075 44.499-47.448 44.499-0.787 0-1.574-0.026-2.373-0.058 0 0-7.802-0.299-11.618-0.408-7.611-0.211-18.544-0.429-31.56-0.429-20.79 0-40.706 0.538-59.194 1.598-23.331 1.309-44.92 3.546-62.408 6.459-12.818 2.122-24.277 4.736-33.134 7.573-4.757 1.507-9.686 2.282-14.642 2.282-20.693 0-38.864-13.016-45.242-32.403-8.051-24.552 5.677-50.981 30.621-58.917 13.578-4.314 28.822-7.853 46.579-10.805 14.861-2.461 30.776-4.403 48.666-5.918 26.946-2.28 56.81-3.437 88.754-3.445v0zM725.114 410.075c33.045 0 57.52 1.298 62.091 1.56 26.291 1.565 46.298 23.789 44.707 49.541-1.514 24.653-22.344 43.963-47.405 43.963-0.971 0-1.946-0.038-2.93-0.096l-3.885-0.19c-2.672-0.134-6.661-0.314-11.702-0.486-9.19-0.333-23.733-0.709-40.877-0.709-19.848 0-38.565 0.504-55.85 1.501-20.918 1.195-40.336 3.202-56.168 5.81-11.344 1.846-21.645 4.146-29.773 6.632-4.587 1.398-9.333 2.109-14.091 2.109-20.942 0-39.19-13.24-45.403-32.941-3.76-11.936-2.571-24.602 3.342-35.669 5.915-11.048 15.859-19.182 27.99-22.888 12.501-3.803 26.346-6.928 42.291-9.562 13.616-2.216 28.075-3.973 44.19-5.354 25.134-2.134 53.221-3.221 83.47-3.221v0z" />
<glyph unicode="&#xe250;" glyph-name="250" d="M679.272 146.909v535.274h66.91v-535.274h-66.91zM545.454 146.909v535.274h66.909v-535.274h-66.909zM411.637 146.909v535.274h66.909v-535.274h-66.909zM277.818 146.909v535.274h66.91v-535.274h-66.91zM210.909 682.182v-602.182h602.182v602.182h66.909v66.909h-267.637v66.909h-200.726v-66.909h-267.637v-66.909h66.909z" />
<glyph unicode="&#xe251;" glyph-name="251" d="M650 608.533h92v-91.733h-92v91.733zM466 608.533h92v-91.733h-92v91.733zM282 608.533h92v-91.733h-92v91.733zM144 562.667c0-92.918 88.717-172.888 216.2-208.923l-135.699-249.744 361.789 233.92c167.618 21.421 293.71 113.954 293.71 224.747 0 126.658-164.757 229.333-368 229.333s-368-102.675-368-229.333z" />
<glyph unicode="&#xe252;" glyph-name="252" d="M650 608.533h-276v137.6h276v-137.6zM190 562.667h644v-275.2h-138v91.733h-368v-91.733h-138v275.2zM144 608.533v-366.933h184v-137.6h368v137.6h184v366.933h-184v183.467h-368v-183.467h-184z" />
<glyph unicode="&#xe253;" glyph-name="253" d="M742.704 593.512c0-13.906-11.885-25.826-25.752-25.826h-427.885c-13.867 0-25.754 11.92-25.754 25.826v113.23c0 13.906 11.886 25.824 25.754 25.824h427.885c13.867 0 25.752-11.918 25.752-25.824v-113.23zM741.714 454.456c0-13.906-11.885-25.824-25.752-25.824h-72.304c-13.867 0-25.754 11.918-25.754 25.824v25.824c0 13.906 11.886 25.826 25.754 25.826h72.304c13.867 0 25.752-11.92 25.752-25.826v-25.824zM741.714 320.366c0-13.904-11.885-25.824-25.752-25.824h-72.304c-13.867 0-25.754 11.92-25.754 25.824v25.826c0 13.906 11.886 25.824 25.754 25.824h72.304c13.867 0 25.752-11.918 25.752-25.824v-25.826zM741.714 186.278c0-13.906-11.885-25.826-25.752-25.826h-72.304c-13.867 0-25.754 11.92-25.754 25.826v25.824c0 13.906 11.886 25.824 25.754 25.824h72.304c13.867 0 25.752-11.918 25.752-25.824v-25.824zM564.419 454.456c0-13.906-11.886-25.824-25.752-25.824h-72.306c-13.866 0-25.752 11.918-25.752 25.824v25.824c0 13.906 11.886 25.826 25.752 25.826h72.306c13.866 0 25.752-11.92 25.752-25.826v-25.824zM564.419 320.366c0-13.904-11.886-25.824-25.752-25.824h-72.306c-13.866 0-25.752 11.92-25.752 25.824v25.826c0 13.906 11.886 25.824 25.752 25.824h72.306c13.866 0 25.752-11.918 25.752-25.824v-25.826zM564.419 186.278c0-13.906-11.886-25.826-25.752-25.826h-72.306c-13.866 0-25.752 11.92-25.752 25.826v25.824c0 13.906 11.886 25.824 25.752 25.824h72.306c13.866 0 25.752-11.918 25.752-25.824v-25.824zM387.123 454.456c0-13.906-11.885-25.824-25.752-25.824h-72.304c-13.867 0-25.754 11.918-25.754 25.824v25.824c0 13.906 11.886 25.826 25.754 25.826h72.304c13.867 0 25.752-11.92 25.752-25.826v-25.824zM387.123 320.366c0-13.904-11.885-25.824-25.752-25.824h-72.304c-13.867 0-25.754 11.92-25.754 25.824v25.826c0 13.906 11.886 25.824 25.754 25.824h72.304c13.867 0 25.752-11.918 25.752-25.824v-25.826zM387.123 186.278c0-13.906-11.885-25.826-25.752-25.826h-72.304c-13.867 0-25.754 11.92-25.754 25.826v25.824c0 13.906 11.886 25.824 25.754 25.824h72.304c13.867 0 25.752-11.918 25.752-25.824v-25.824zM712.99 816h-417.981c-56.458 0-103.010-45.69-103.010-103.298v-529.405c0-56.614 45.562-103.298 103.010-103.298h417.981c56.458 0 103.010 45.69 103.010 103.298v0 529.405c0 56.614-45.562 103.298-103.010 103.298v0z" />
<glyph unicode="&#xe254;" glyph-name="254" d="M670.117 816v-63.688c0-12.555-10.194-22.734-22.766-22.734-12.517 0-22.666 10.179-22.666 22.734v63.688h-225.33v-63.688c0-12.555-10.192-22.734-22.749-22.734-12.541 0-22.763 10.179-22.734 22.734v63.688h-209.872v-736h736v736h-209.883zM813.725 144.795h-603.435v521.022h603.435v-521.022zM486.125 340.906c3.594-17.25 8.626-30.187 15.094-39.531 8.624-14.374 19.406-24.437 33.062-31.624 13.656-6.469 31.624-10.062 54.624-10.062 38.813 0 66.845 10.781 83.376 33.062 15.813 21.562 24.437 56.781 24.437 104.938 0 21.562-2.875 41.686-7.906 61.811-2.875 10.064-5.75 18.688-10.062 26.595-4.314 7.187-9.344 15.093-16.531 22.28-7.187 7.189-16.531 12.938-28.032 17.251-11.499 4.312-26.594 6.469-43.843 6.469-37.376 0-64.688-10.062-82.656-30.189-17.97-20.125-26.594-55.342-26.594-104.938 0-20.843 1.437-39.531 5.030-56.062zM561.594 464.531c5.75 12.219 14.374 18.688 26.594 18.688 11.501 0 20.845-6.469 26.594-17.97 5.75-12.218 8.626-35.938 8.626-70.437 0-24.438-1.438-41.688-3.594-53.187-2.875-11.501-6.469-19.406-12.219-24.438-5.75-5.75-12.219-7.906-19.406-7.906-11.499 0-20.125 5.75-25.875 18.686-5.749 12.219-8.624 35.219-8.624 69 0 33.064 2.155 55.344 7.906 67.563zM356.75 532.094c-8.626-17.251-19.406-30.907-33.062-42.406-13.656-11.501-33.062-20.845-57.501-28.032v-60.374c16.531 5.030 30.187 10.062 41.688 15.813 11.499 5.749 23 12.938 35.219 22.28v-175.374h74.030v268.094h-60.374z" />
<glyph unicode="&#xe255;" glyph-name="255" d="M880 642.933h-736v149.067h736v-149.067zM144 241.6h149.501v-137.6h-149.501v137.6zM144 425.067h149.501v-137.6h-149.501v137.6zM144 597.067h149.501v-137.6h-149.501v137.6zM339.501 241.6h149.499v-137.6h-149.499v137.6zM339.501 425.067h149.499v-137.6h-149.499v137.6zM339.501 597.067h149.499v-137.6h-149.499v137.6zM535 241.6h149.501v-137.6h-149.501v137.6zM535 425.067h149.501v-137.6h-149.501v137.6zM535 597.067h149.501v-137.6h-149.501v137.6zM730.501 241.6h149.499v-137.6h-149.499v137.6zM730.501 425.067h149.499v-137.6h-149.499v137.6zM730.501 597.067h149.499v-137.6h-149.499v137.6z" />
<glyph unicode="&#xe256;" glyph-name="256" d="M557.101 797.133c0 10.381-8.13 18.867-18.048 18.867h-54.091c-9.915 0-18.048-8.486-18.048-18.867v-232.742c0-10.397 8.133-18.883 18.048-18.883h54.091c9.918 0 18.048 8.494 18.048 18.883v232.742zM839.659 513.427h-655.315c-29.776 0-46.85-24.326-38.013-54.050l96.99-325.317c8.883-29.734 40.478-54.061 70.235-54.061h396.866c29.755 0 61.352 24.32 70.206 54.061l97.022 325.317c8.883 29.715-8.222 54.050-37.992 54.050zM385.757 224.699c0-10.386-8.125-18.883-18.048-18.883h-45.064c-9.915 0-18.048 8.498-18.048 18.883v174.846c0 10.378 8.125 18.882 18.048 18.882h45.064c9.915 0 18.048-8.504 18.048-18.882v-174.846zM552.594 224.699c0-10.386-8.122-18.883-18.054-18.883h-45.069c-9.914 0-18.046 8.498-18.046 18.883v174.846c0 10.378 8.125 18.882 18.046 18.882h45.069c9.941 0 18.054-8.504 18.054-18.882v-174.846zM719.414 224.699c0-10.386-8.115-18.883-18.027-18.883h-45.078c-9.926 0-18.034 8.498-18.034 18.883v174.846c0 10.378 8.115 18.882 18.034 18.882h45.078c9.918 0 18.027-8.504 18.027-18.882v-174.846z" />
<glyph unicode="&#xe257;" glyph-name="257" d="M792.646 592.269c-11.152 11.182-31.288 9.094-44.981-4.598-7.701-7.686-11.76-17.381-11.826-26.394l0.066 0.104c-0.102-19.914-6.923-38.562-20.802-52.365-32.094-32.186-89.997-26.416-129.23 12.848-39.27 39.272-45.048 97.139-12.848 129.235 13.84 13.915 32.45 20.699 52.363 20.802l-0.074-0.102c9.026 0.102 18.712 4.184 26.347 11.834 13.707 13.707 15.803 33.91 4.651 45.056l-0.355 0.459-79.526 79.677c-11.182 11.146-31.318 9.093-45.054-4.659l-87.413-87.518c-11.717-11.65-28.933-13.382-38.413-3.902-3.302 3.266-5.25 7.458-5.894 11.922-0.392 13.397-4.443 24.898-12.707 33.17-27.696 27.661-140.597 57.835-191.576 6.803-51.016-51.016-20.944-163.92 6.819-191.608 8.197-8.274 19.706-12.354 33.125-12.717 4.546-0.674 8.634-2.592 11.93-5.821 9.515-9.515 7.776-26.771-3.947-38.45v0l-87.509-87.43c-13.709-13.73-15.766-33.925-4.584-45.070l79.629-79.536 0.43-0.347c11.182-11.19 31.384-9.102 45.091 4.651 7.664 7.627 11.678 17.358 11.746 26.378l-0.067-0.118c0.147 19.891 6.954 38.525 20.808 52.41 32.133 32.125 89.998 26.342 129.232-12.909 39.264-39.286 45.083-97.117 12.923-129.25-13.886-13.84-32.488-20.698-52.365-20.802l0.037 0.104c-9.019-0.104-18.675-4.125-26.378-11.827-13.744-13.707-15.765-33.874-4.621-45.003l0.318-0.467 79.563-79.638c11.182-11.154 31.347-9.094 45.054 4.576l87.48 87.549c11.642 11.642 28.859 13.419 38.382 3.902 3.266-3.266 5.147-7.413 5.858-11.96 0.355-13.352 4.435-24.845 12.67-33.133 27.733-27.682 140.634-57.835 191.65-6.81 50.986 51.016 20.834 163.882-6.856 191.587-8.272 8.256-19.771 12.381-33.123 12.738-4.547 0.71-8.666 2.592-11.923 5.85-9.517 9.486-7.746 26.698 3.939 38.39v0.030l87.51 87.414c13.669 13.738 15.795 33.904 4.65 45.056l-79.674 79.573-0.526 0.318z" />
<glyph unicode="&#xe258;" glyph-name="258" d="M283.429 678v-46h365.714v46h-365.714zM786.286 310v-46h45.714v46h-45.714zM786.286 218v46h-45.715v-46h45.715zM740.571 172v46h-45.714v-46h45.714zM694.858 126v46h-45.715v-46h45.715zM649.142 80v46h-45.714v-46h45.714zM557.714 126h45.715v46h-45.715v-46zM512 172h45.714v46h-45.714v-46zM283.429 310v-46h365.714v46h-365.714zM283.429 402v-46h365.714v46h-365.714zM283.429 494v-46h365.714v46h-365.714zM283.429 586v-46h365.714v46h-365.714zM192 816v-690h274.286v46h-228.573v598h457.144v-460h45.714v506h-548.571z" />
<glyph unicode="&#xe259;" glyph-name="259" d="M580.8 172v46h-45.867v-46h45.867zM580.8 264v-46h45.867v46h-45.867zM626.667 310v-46h45.866v46h-45.866zM672.533 356v-46h45.867v46h-45.867zM718.4 402v-46h45.867v-46h45.866v46h45.867v92h-45.867v46h-91.733v-46h-45.867v-46h45.867zM764.267 264v46h-45.867v-46h45.867zM718.4 218v46h-45.867v-46h45.867zM672.533 172v46h-45.866v-46h45.866zM626.667 126v46h-45.867v-46h45.867zM626.667 356h45.866v46h-45.866v-46zM580.8 310h45.867v46h-45.867v-46zM534.933 264h45.867v46h-45.867v-46zM489.067 218h45.866v46h-45.866v-46zM489.067 172v46h-45.867v-138h137.6v46h-91.733v46zM259.733 678v-46h366.934v46h-366.934zM259.733 310v-46h183.467v46h-183.467zM259.733 402v-46h275.2v46h-275.2zM259.733 494v-46h321.067v46h-321.067zM259.733 586v-46h366.934v46h-366.934zM168 816v-690h229.333v46h-183.466v598h458.666v-230h45.867v276h-550.4z" />
<glyph unicode="&#xe260;" glyph-name="260" d="M634.787 358.923c29.712-24.042 117.875-45.987 188.669-86.682 23.336-13.416 25.347-33.296 27.093-45.314 1.747-12.026 5.451-146.928 5.451-146.928h-688c0 0 3.704 134.902 5.451 146.928 1.746 12.018 1.904 30.259 27.091 45.314 70.142 41.923 158.565 61.25 188.277 85.291 11.803 9.544 8.738 24.966 11.363 39.763 2.627 14.797 11.365 4.627 11.365 20.347 0 15.808 2.786 13.053 1.154 34.067-1.427 18.306-25.165 20.258-26.501 54.526-0.274 7.213-12.23 12.034-19.221 23.118-6.992 11.101-18.349 30.517-18.349 52.71 0 22.195 4.373 16.653 4.373 44.39 0 27.746-0.979 43.819 13.984 108.202 5.579 24.018 24.571 52.181 43.587 64.914 25.635 17.165 15.334-5.728 101.478 14.611 55.848 13.19 143.328-48.085 144.202-97.101 1.176-66.286 5.026-61.314 8.73-88.778 2.627-19.416 7.872-14.789 7.872-36.984 0-22.203-11.363-49.939-18.355-61.042-6.992-11.101-13.474-28.901-14.37-36.059-4.57-37.038-27.936-28.475-28.915-48.333-0.888-18.122-2.011-15.808 0.547-29.93 2.141-11.818 8.646 0.754 11.266-14.042 2.626-14.789 0.803-36.534 11.758-42.992v0z" />
<glyph unicode="&#xe261;" glyph-name="261" d="M144 728v-560h736v560h-736zM820.494 227.725h-617.424v441.742h617.424v-441.742zM747.52 639.579c24.387 0 44.16-19.795 44.16-44.211 0-24.414-19.773-44.21-44.16-44.21s-44.16 19.795-44.16 44.21c0 24.416 19.773 44.211 44.16 44.211zM438.4 580.632l-206.080-324.211h235.52l87.53 140.202-116.97 184.010zM644.48 492.211l-147.2-235.79h294.4l-147.2 235.79z" />
<glyph unicode="&#xe262;" glyph-name="262" d="M190 770h644v-230h-644v230zM144 816v-322h736v322h-736zM420 724v-46h368v46h-368zM420 632v-46h368v46h-368zM236 724v-138h138v138h-138zM190 356h644v-230h-644v230zM144 402v-322h736v322h-736zM420 310v-46h368v46h-368zM420 218v-46h368v46h-368zM236 310v-138h138v138h-138z" />
<glyph unicode="&#xe263;" glyph-name="263" d="M236 586h230v-230h-230v230zM144 816h736v-46h-736v46zM834 816h46v-736h-46v736zM144 126h736v-46h-736v46zM144 816h46v-736h-46v736zM236 724h552v-92h-552v92zM512 586h276v-46h-276v46zM512 494h276v-46h-276v46zM512 402h276v-46h-276v46zM236 310h552v-46h-552v46zM236 218h552v-46h-552v46z" />
<glyph unicode="&#xe264;" glyph-name="264" d="M512 800c-132 0-240-108.966-240-244.869 0-225.28 240-459.131 240-459.131s240 258.338 240 459.131c0 134.677-108 244.869-240 244.869v0z" />
<glyph unicode="&#xe265;" glyph-name="265" d="M504.037 656c-146.702 0-292.934-100.298-368.037-207.992 75.102-108.33 221.28-208.008 368.037-208.008 146.734 0 307.882 99.678 367.963 207.691-60.082 108.011-221.229 208.309-367.963 208.309zM504 292.062c-83.837 0-151.795 69.813-151.795 155.938s67.965 155.938 151.795 155.938c83.845 0 151.803-69.821 151.803-155.938 0-86.125-67.966-155.938-151.803-155.938zM597.291 504.067c0-20.494-16.165-37.074-36.091-37.074-19.942 0-36.077 16.579-36.093 37.074 0 20.49 16.144 37.094 36.093 37.094 1.635 0 3.205-0.278 4.789-0.498-17.646 12.47-38.974 19.808-61.989 19.808-60.462 0-109.485-50.358-109.485-112.472 0-62.106 49.022-112.472 109.485-112.472s109.485 50.358 109.485 112.472c0 21.725-6.102 41.947-16.488 59.144 0.088-1.035 0.294-2.022 0.294-3.077z" />
<glyph unicode="&#xe266;" glyph-name="266" d="M806.773 260.037h-588.304v345.946l271.811-201.802c6.206-4.613 14.894-6.92 23.582-6.92s16.134 2.307 23.581 6.92l271.811 201.802v-345.946h-2.482zM729.821 635.963l-217.2-161.442-217.202 161.442h434.402zM880 660.181v0c-2.482 24.216-24.822 43.819-52.128 43.819h-631.744c-27.306 0-49.646-19.603-52.128-43.819v0 0c0-1.154 0-3.461 0-4.613v-415.136c0-26.522 23.582-48.432 52.128-48.432h631.744c28.546 0 52.128 21.91 52.128 48.432v415.136c0 2.306 0 3.459 0 4.613v0 0z" />
<glyph unicode="&#xe267;" glyph-name="267" d="M336.845 548.658c0-19.25-15.763-35.013-35.307-35.013h-82.208c-19.413 0-35.307 15.634-35.307 35.013v0c0 19.251 15.765 35.014 35.307 35.014h82.339c19.413 0 35.176-15.634 35.176-35.014v0 0zM427.133 426.563c0-19.251-15.765-35.014-35.307-35.014h-82.339c-19.413 0-35.307 15.634-35.307 35.014v0c0 19.251 15.763 35.013 35.307 35.013h82.339c19.542-0.128 35.307-15.762 35.307-35.013v0 0zM511.686 304.339c0-19.251-15.765-35.014-35.307-35.014h-82.339c-19.413 0-35.307 15.634-35.307 35.014v0c0 19.251 15.765 35.013 35.307 35.013h82.339c19.542 0 35.307-15.762 35.307-35.013v0 0zM606.925 533.413c-19.934-19.51-52.245-19.381-71.917 0.517l-131.718 132.173h339.261l-135.626-132.69zM758.835 735.87h-512.406c-0.261 0-0.522 0.13-0.782 0.13h-82.339c-19.413 0-35.307-15.634-35.307-35.013 0-19.251 15.765-35.014 35.307-35.014h141.098l180.443-181.269c47.032-47.288 123.901-47.675 171.454-1.163l150.738 147.677c1.565-4.909 2.736-10.077 2.736-15.504v-351.427c0-27.778-22.798-50.518-50.941-50.518h-213.144c-0.522 0-1.043 0.389-1.563 0.389h-82.341c-19.411 0-35.306-15.634-35.306-35.014 0-19.251 15.763-35.013 35.306-35.013h20.325v-0.13h276.594c66.835 0 121.294 53.877 121.294 120.286v351.427c0.13 66.28-54.328 120.157-121.165 120.157v0z" />
<glyph unicode="&#xe268;" glyph-name="268" d="M213.883 763.605c5.066 5.094 8.864 10.189 12.664 11.462l73.446 36.933c17.73 8.914 37.99 2.547 46.854-15.283l79.779-157.918c8.864-17.83 1.267-38.206-15.195-47.122l-73.448-38.206c-8.864-5.094-26.592-2.547-50.653 2.547-11.397-59.856 26.594-128.627 101.307-207.587 60.782-63.677 153.226-155.373 241.869-134.995-25.326 34.386-16.462 58.582-7.598 70.045l51.92 67.498c11.397 15.282 34.19 19.102 49.387 6.368l141.829-109.525c15.197-12.736 18.995-34.386 6.333-49.669l-51.92-67.498c-2.533-3.821-7.598-6.368-15.197-10.187v-1.274c-214.010-108.251-414.091 29.291-517.93 151.55-149.427 174.475-173.488 290.368-111.438 424.090 10.131 21.65 22.795 44.574 37.99 68.771v0z" />
<glyph unicode="&#xe269;" glyph-name="269" d="M678.563 717.75c0 0-90.853 14.632-111.96-9.467-31.202-14.63-21.107-109.304-21.107-109.304h112.878v-95.533h-112.878v-423.446h-133.986v423.446h-83.51v95.533h84.429c-7.341 0 4.589 93.813 5.506 102.419 4.589 46.475 41.298 87.787 89.018 103.28 65.157 20.654 123.891 9.467 189.048-5.165-5.506-26.68-11.93-54.221-17.437-81.763v0z" />
<glyph unicode="&#xe270;" glyph-name="270" d="M876.261 694.104c-3.741 3.958-8.728 6.597-13.714 5.277-2.493 0-7.48-1.318-12.466-2.638s-9.974-2.638-16.206-3.958c2.493 5.278 4.986 11.875 6.232 18.474 2.494 10.557 4.987 21.114 7.48 32.99 1.246 5.278-1.246 11.877-4.986 15.835-4.987 3.958-11.221 3.958-16.206 1.318-22.44-13.195-39.893-21.112-53.605-27.71-12.467-3.958-23.686-6.598-34.906-9.237-13.714 14.515-29.92 25.072-46.126 31.67-18.699 7.917-39.891 11.875-59.837 11.875-24.933 0-49.866-5.278-74.798-17.155v0c-12.466-5.278-23.686-13.195-33.659-23.752-14.96-14.515-28.672-32.989-37.398-54.104-8.726-21.112-14.96-43.546-14.96-67.298 0-2.64 0-5.278 0-7.917h-1.246c-26.179 7.917-67.318 22.432-107.21 40.906-16.206 7.918-39.893 23.754-62.331 43.547-22.44 19.794-44.88 44.866-59.838 69.938-2.494 3.96-6.234 6.598-11.219 6.598-3.741 0-8.728-1.32-11.221-3.958-7.48-7.918-12.466-14.515-17.453-21.114-7.48-10.557-13.714-19.794-17.453-31.67-3.739-10.557-6.234-22.434-7.48-35.629-1.246-9.237-1.246-18.474-1.246-29.030 0-22.434 2.493-46.186 11.221-67.299-6.234-1.32-12.467-6.598-12.467-14.515 0-5.278 0-11.877 0-17.155 0-50.144 14.96-91.051 38.645-118.763 2.494-2.638 4.987-5.278 7.48-7.917v0c0-1.32 0-2.64 0-2.64 0-18.474 4.987-36.949 12.467-52.784 12.466-23.752 31.165-43.546 52.358-56.741 7.48-5.278 16.206-9.238 24.933-13.197-36.152-11.875-67.318-15.835-91.005-15.835-11.219 0-21.192 0-29.918 1.32-8.726 0-17.453 1.32-24.933 1.32-1.246 0-3.739 0-4.987 0-4.986 0-8.726-2.64-11.219-6.598s-3.741-7.917-2.493-13.195c3.739-18.475 14.96-35.63 28.672-50.146 21.192-22.432 52.358-40.906 89.757-54.102s79.784-21.114 127.157-21.114c67.318 0 142.115 17.155 213.173 58.062 64.826 36.949 119.677 98.97 152.090 167.587 11.219 23.754 23.685 54.102 33.659 87.093 9.973 32.99 16.205 67.299 16.205 98.97 0 10.557-1.246 21.112-2.493 31.67 8.726 6.597 16.206 11.875 22.44 18.474 13.712 11.877 23.685 25.072 32.411 39.587 8.726 14.517 16.206 30.35 22.44 48.826 0 5.278 0 11.877-3.739 15.835v0z" />
<glyph unicode="&#xe271;" glyph-name="271" d="M745.333 218v-46h46.667v46h-46.667zM745.333 126v46h-46.666v230h-46.667v-230h-46.667v-46h46.667v-46h46.667v46h46.666zM558.667 172h46.666v46h-46.666v-46zM325.333 678v-46h373.334v46h-373.334zM325.333 310v-46h280v46h-280zM325.333 402v-46h280v46h-280zM325.333 494v-46h373.334v46h-373.334zM325.333 586v-46h373.334v46h-373.334zM232 816v-690h280v46h-233.333v598h466.666v-506h46.667v552h-560z" />
<glyph unicode="&#xe272;" glyph-name="272" d="M576.774 749.282l-4.976 17.57 28.264-31.698v-13.626c21.136-8.65 38.541-21.722 52.254-39.237-6.054 1.422-11.701 2.627-16.971 3.614-10.49 1.976-13.976 1.694-10.442-0.827 3.88-2.949 11.072-14.834 21.587-35.63 9.95-20.027 15.882-33.877 17.821-41.531 1.49-5.92-1.014-23.808-7.528-53.698-3.206-14.994-6.562-29.333-10.114-43.018l-3.771-5.904c-1.358-3.509 1.088-4.262 7.363-2.294 6.179 1.965 9.992-0.122 11.482-6.25 0.794-3.165 0.965-6.512 0.523-10.003l-11.661-38.91c-8.109-26.381-13.362-40.779-15.768-43.194-2.504-2.4-6.275-2.573-11.309-0.486-2.626 0.65-4.107 2.298-4.467 4.925l0.704-7.387c-0.115-7.779-1.098-16.766-2.914-26.938-1.939-10.187-7.61-22.216-16.954-36.12l-18.174-20.374c-3.421-13.026-5.605-20.946-6.506-23.8-0.344 0-0.523-0.157-0.523-0.486-0.213-1.2-0.066-1.050 0.523 0.486 2.054-0.117 10.744-7.606 26.037-22.483 8.912-8.445 17.709-17.15 26.382-26.122 129.171-41.264 213.298-67.581 252.362-78.976v-62.885h-736v25.611c11.075 3.075 21.938 5.811 32.55 8.203 8.912 6.674 34.786 20.694 77.61 42.034 20.779 10.507 40.83 20.373 60.138 29.563 0 1.978 0 4.203 0 6.722 0 14.342 5.99 27.706 17.982 40.048 5.941 6.165 11.872 10.846 17.821 14.147 5.126 4.714 8.846 10.525 11.125 17.41 1.829 5.474 3.715 9.074 5.659 10.822-4.677 10.845-11.187 19.432-19.525 25.8-13.824 10.728-23.586 29.274-29.31 55.646-1.824 8.328-3.142 16.867-3.939 25.611l-0.517 10.838c-8.104-2.73-13.758-3.67-16.954-2.792-3.2 0.878-7.822 13.080-13.874 36.622-6.629 25.502-9.309 46.029-8.053 61.574 1.138 14.339 6.224 21.24 15.242 20.683 4.459-0.338 8.73-2.086 12.854-5.25-2.859 8.65-5.826 18.17-8.915 28.571-6.162 20.685-9.528 37.106-10.098 49.256-0.576 11.602 5.933 29.176 19.533 52.71 3.309 5.685 7.699 13.131 13.186 22.334 3.536 6.453 4.853 10.115 3.941 10.998-1.477 1.536-1.477 3.493 0 5.912 2.168 3.387 3.374 5.685 3.6 6.89 0.565 4.046 5.539 8.32 14.909 12.818 3.776 1.854 21.877 11.328 54.304 28.392l3.429 4.771-9.083 5.419-6.338 10.834-4.966 12.15 28.262-5.744-6.346 1.654 11.314 2.122c2.741 2.746 3.653 4.109 2.741 4.109l0.688 5.922 4.958-3.286 4.291 1.31 4.112 7.555 2.062-5.25c1.584-4.059 3.31-7.717 5.139-11.003 1.598-3.066 3.022-4.874 4.286-5.418 2.28-0.989 4.109-2.138 5.47-3.448 2.414-2.19 4.459-2.842 6.178-1.976 0.803 0.435 1.376 1.094 1.71 1.976-2.397 4.048-4.803 7.219-7.192 9.517-1.363 1.427-2.622 3.779-3.768 7.066l-1.030 4.435 11.99-4.757 10.634-8.866 12.667-0.666-5.646 7.387c0 2.733-1.214 5.246-3.597 7.552-1.488 1.427 0.798 0.714 6.845-2.13 2.974-1.432 6.117-3.011 9.427-4.773l7.024-0.65 4.44-1.805c3.318-1.752 6.285-3.614 8.915-5.582 2.757-1.976 4.627-0.762 5.658 3.614 0.794 5.474 1.314 8.814 1.531 10.014 0.237 1.427 2.061 2.63 5.494 3.619 1.693 0.435 3.355 0.819 4.958 1.149l11.472-18.397c1.374-2.192 4.173-6.022 8.395-11.49l2.586 1.965c1.702 1.533 2.275 3.125 1.702 4.773l-7.192 21.011 2.578-0.336c1.939-0.648 3.706-2.133 5.31-4.432 2.283-3.501 7.707-12.253 16.275-26.266l9.754-16.253 6.366 6.706z" />
<glyph unicode="&#xe273;" glyph-name="273" d="M512 477.579c-58.88 0-106.24 48.389-106.24 108.55s47.36 108.549 106.24 108.549 106.24-48.389 106.24-108.549c0-60.162-47.36-108.55-106.24-108.55v0zM512 832c-140.8 0-256-116.397-256-261.565 0-240.64 256-490.435 256-490.435s256 275.952 256 490.435c0 143.861-115.2 261.565-256 261.565v0z" />
<glyph unicode="&#xe274;" glyph-name="274" d="M818.376 283.029c0-32.435-26.403-59.278-58.306-59.278h-495.056c-31.904 0-58.307 26.843-58.307 59.278v329.942c0 32.434 26.403 59.277 58.307 59.277h493.955c31.904 0 58.307-26.843 58.307-59.277l1.099-329.942zM760.070 736h-495.056c-67.109 0-121.014-54.805-121.014-123.029v-329.942c0-68.226 53.906-123.029 121.014-123.029h493.955c67.107 0 121.014 54.803 121.014 123.029v329.942c1.099 68.224-52.806 123.029-119.914 123.029zM668.76 569.35l-321.237-203.557-25.302 43.621-24.203-93.95 92.41-23.488-24.202 42.501 322.336 203.558 29.704-43.619 18.702 95.067-93.512 19.014 25.304-39.147z" />
<glyph unicode="&#xe275;" glyph-name="275" d="M374 494v-92h276v92h-276zM880 356v184h-46v46h-46v46h-184v-46h-46v-46h230v-184h-230v-46h46v-46h184v46h46v46h46zM144 540v-184h46v-46h46v-46h184v46h46v46h-230v184h230v46h-46v46h-184v-46h-46v-46h-46z" />
<glyph unicode="&#xe276;" glyph-name="276" d="M880 816h-736l276.013-284.112v-451.888l183.99 126.264v325.624l275.997 284.112z" />
<glyph unicode="&#xe277;" glyph-name="277" d="M144 172h46v46h-46v-46zM328 218v-46h46v46h-46zM328 126v46h-46v276h-46v-276h-46v-46h46v-46h46v46h46zM259 632l-69 92h138l-69-92zM144 816v-276h230v276h-230zM418.883 449.998v-92h92v92h-92zM558 448v-92h322v92h-322zM418.883 311.998v-92h92v92h-92zM558 310v-92h322v92h-322zM418.883 173.998v-92h92v92h-92zM558 172v-92h322v92h-322zM420 816v-276h460v276h-460z" />
<glyph unicode="&#xe278;" glyph-name="278" d="M190 770h644v-644h-644v644zM144 816v-736h736v736h-736zM558 218v-46h230v46h-230zM236 218v-46h230v46h-230zM558 310v-46h230v46h-230zM236 310v-46h230v46h-230zM558 402v-46h230v46h-230zM236 402v-46h230v46h-230zM558 494v-46h230v46h-230zM236 494v-46h230v46h-230zM558 586v-46h230v46h-230zM236 586v-46h230v46h-230zM236 724v-92h552v92h-552z" />
<glyph unicode="&#xe279;" glyph-name="279" d="M742 402v-138h138v138h-138zM144 126v-46h552v46h-552zM144 540v-46h552v46h-552zM144 218v-46h552v46h-552zM144 310v-46h552v46h-552zM144 402v-46h552v46h-552zM742 816v-138h138v138h-138zM144 632v-46h552v46h-552zM144 724v-46h552v46h-552zM144 816v-46h552v46h-552z" />
<glyph unicode="&#xe280;" glyph-name="280" d="M512 646.16c46.99 0 85.102 38.037 85.102 84.934 0 46.869-38.112 84.906-85.102 84.906s-85.102-38.037-85.102-84.934c0-46.898 38.112-84.906 85.102-84.906v0zM398.55 363.066h28.347v-169.84c0-15.603 12.744-28.291 28.378-28.291h113.45c15.634 0 28.378 12.718 28.378 28.291v169.84h28.347c15.634 0 28.376 12.718 28.376 28.322v169.838c0 14.485-22.771 46.28-62.299 50.874-16.224 3.091-47.522 5.299-79.083 5.299-31.859 0.029-63.598-2.208-79.998-5.299-39.499-4.622-62.27-36.418-62.27-50.874v-169.838c0-15.603 12.742-28.322 28.376-28.322v0zM824 193.226c0-77.779-161.738-113.226-312-113.226s-312 35.446-312 113.226c0 59.853 89.232 88.085 164.067 101.245 15.486 2.678 30.147-7.595 32.861-22.992 2.714-15.398-7.581-30.088-23.008-32.797-90.264-15.81-115.75-40.598-117.226-45.898 4.338-14.837 89.438-56.171 255.306-56.171s250.968 41.334 255.334 57.054c-1.504 4.416-27.138 29.352-118.051 45.133-15.427 2.678-25.752 17.37-23.067 32.766 2.685 15.368 17.139 25.642 32.832 23.022 75.248-13.101 164.952-41.275 164.952-101.363v0z" />
<glyph unicode="&#xe291;" glyph-name="291" d="M558.893 322.541c-31.954 0-62.005 17.274-72.283 36.885 0 0-17.19-68.178-20.819-81.344-12.811-46.494-50.504-93.029-53.427-96.838-2.042-2.653-6.552-1.819-7.027 1.691-0.818 5.923-10.422 64.597 0.885 112.458 5.678 24.032 38.064 161.254 38.064 161.254s-9.44 18.894-9.44 46.826c0 43.856 25.422 76.595 57.070 76.595 26.909 0 39.914-20.205 39.914-44.426 0-27.061-17.229-67.518-26.128-105.010-7.426-31.402 15.746-57.003 46.707-57.003 56.058 0 93.821 72.014 93.821 157.341 0 64.848-43.661 113.406-123.128 113.406-89.747 0-145.701-66.947-145.701-141.733 0-25.776 7.616-43.974 19.534-58.034 5.469-6.469 6.235-9.072 4.254-16.494-1.443-5.451-4.678-18.555-6.046-23.749-1.965-7.504-8.037-10.176-14.813-7.406-41.331 16.877-60.6 62.158-60.6 113.058 0 84.059 70.894 184.862 211.49 184.862 112.998 0 187.349-81.749 187.349-169.53-0.003-116.086-64.542-202.81-159.675-202.81zM144 176c0-53.021 42.979-96 96-96h544c53.021 0 96 42.979 96 96v544c0 53.021-42.979 96-96 96h-544c-53.021 0-96-42.979-96-96v-544z" />
<glyph unicode="&#xe292;" glyph-name="292" d="M326 586l368-138-368-138v276zM282 816c-76.216 0-138-61.784-138-138v-460c0-76.216 61.784-138 138-138h460c76.216 0 138 61.784 138 138v460c0 76.216-61.784 138-138 138h-460z" />
<glyph unicode="&#xe293;" glyph-name="293" d="M788 586h-138v138h138v-138zM788 172h-552v322h98.514c-3.818-14.779-6.514-30.008-6.514-46 0-101.614 82.386-184 184-184s184 82.386 184 184c0 15.992-2.696 31.221-6.514 46h98.514v-322zM420 448c0 0 7.277 92 92 92s92-92 92-92c0 0 2.651-92-92-92s-92 92-92 92v0zM834 816h-644c-25.427 0-46-20.573-46-46v-644c0-25.427 20.573-46 46-46h644c25.427 0 46 20.573 46 46v644c0 25.427-20.573 46-46 46v0z" />
<glyph unicode="&#xe294;" glyph-name="294" d="M513.76 354.536c-52.342 0.502-94.37 43.342-93.866 95.677 0.482 52.344 43.299 94.362 95.662 93.89 52.354-0.523 94.371-43.31 93.898-95.707-0.502-52.325-43.36-94.362-95.694-93.859v0zM516.429 636.514c-103.382 0.966-187.981-82.064-188.965-185.429-0.986-103.365 82.042-187.995 185.424-188.971 103.373-0.944 187.971 82.054 188.966 185.419 0.965 103.406-82.042 188.006-185.426 188.981v0zM512.242 195.171c-141.067 1.334-254.387 116.803-253.074 257.915 1.346 141.061 116.81 254.405 257.93 253.080 141.067-1.365 254.387-116.813 253.074-257.904-1.336-141.072-116.811-254.405-257.93-253.091v0zM512.005 815.97c-0.605 0-1.179-0.011-1.755-0.011v0.042h-366.25v-368.035c0-203.242 164.75-367.965 368.005-367.965s367.995 164.723 367.995 367.965c-0.010 203.25-164.77 368.005-367.995 368.005v0z" />
<glyph unicode="&#xe295;" glyph-name="295" d="M310.702 714.026c-12.907 5.746-25.813 7.182-40.152 7.182-55.926 0-88.909-41.653-97.512-107.72v-33.034c0-54.578 54.491-170.914 143.4-170.914 74.568 0 98.946 76.122 98.946 127.826 0 57.451-25.813 143.626-104.682 176.659zM269.115 383.688c-41.586 1.437-84.605 15.798-123.323 45.96v-192.458c37.283 17.235 73.134 24.416 111.851 28.725h65.965c-27.246 33.034-34.416 45.96-34.416 71.813 0 15.798 4.302 31.597 12.906 47.397-8.603-1.437-11.472-1.437-32.982-1.437zM150.48 181.52c16.15-58.181 69.422-100.882 132.686-100.882h191.011c0 7.181 1.434 20.107 1.434 24.416 0 33.034-11.472 63.195-57.36 94.794-18.642 11.49-34.416 28.725-53.058 34.469-34.416 12.926-35.85 7.182-61.662 7.182-51.027 0-102.024-9.819-153.051-59.979zM145.435 678.12l0.005-102.6 0.32 112.24c-0.219-3.182-0.325-6.402-0.325-9.64zM283.166 816c-69.427 0-126.867-51.446-136.366-118.32 47.024 42.453 96.843 62.338 143.826 66.614l268.158-1.435c-18.642-15.8-37.283-31.598-57.36-47.397h-76.002c57.36-24.416 74.568-87.611 80.304-127.827v-33.034c-2.869-18.67-12.907-45.96-24.379-66.067-20.075-35.907-64.53-57.45-88.907-91.92-4.302-5.746-8.605-25.853-8.605-33.034 0-5.746 4.302-18.672 10.038-27.29 40.152-53.141 116.155-81.866 133.362-140.752 1.435-5.746 4.302-11.491 5.736-17.235 4.302-14.363 7.171-31.598 8.605-44.525v-28.725c-1.434-7.181-2.869-14.362-4.302-24.416h204.995c76.067 0 137.731 61.73 137.731 137.88v459.602c0 76.15-61.664 137.88-137.731 137.88h-459.102z" />
<glyph unicode="&#xe296;" glyph-name="296" d="M769.6 190.4h-110.4v195.040c0 29.438-25.76 55.2-55.2 55.2s-55.2-25.762-55.2-55.2v-195.040h-110.4v331.2h110.4v-44.16c18.4 29.44 58.88 51.52 92 51.52 69.92 0 128.8-58.88 128.8-128.8v-209.76zM309.6 584.16c-36.8 0-66.24 29.44-66.24 66.24s29.44 66.24 66.24 66.24c36.8 0 66.24-29.44 66.24-66.24s-29.44-66.24-66.24-66.24v0zM364.8 190.4h-110.4v331.2h110.4v-331.2zM806.4 816h-588.8c-40.48 0-73.6-33.12-73.6-73.6v-588.8c0-40.48 33.12-73.6 73.6-73.6h588.8c40.48 0 73.6 33.12 73.6 73.6v588.8c0 40.48-33.12 73.6-73.6 73.6v0z" />
<glyph unicode="&#xe297;" glyph-name="297" d="M567.2 471c0 63.514 49.427 115 110.4 115s110.4-51.486 110.4-115c0-63.514-49.427-115-110.4-115s-110.4 51.486-110.4 115zM236 471c0 63.514 49.427 115 110.4 115s110.4-51.486 110.4-115c0-63.514-49.427-115-110.4-115s-110.4 51.486-110.4 115zM282 816c-76.216 0-138-61.784-138-138v-460c0-76.216 61.784-138 138-138h460c76.216 0 138 61.784 138 138v460c0 76.216-61.784 138-138 138h-460z" />
<glyph unicode="&#xe298;" glyph-name="298" d="M199.914 816c-30.883 0-55.914-24.84-55.914-55.48s25.030-55.472 55.914-55.472c313.336 0 568.259-252.904 568.259-563.776 0-30.632 25.030-55.472 55.914-55.472s55.914 24.84 55.914 55.472c0 372.048-305.094 674.728-680.086 674.728v0zM216.68 557.73c-30.883 0-55.914-24.832-55.914-55.472s25.030-55.472 55.914-55.472c166.382 0 301.749-134.298 301.749-299.368 0-30.646 25.029-55.472 55.912-55.472 30.877 0 55.907 24.826 55.907 55.472 0 226.232-185.523 410.312-413.568 410.312v0zM147.894 184.306c0 57.608 47.070 104.306 105.136 104.306s105.134-46.698 105.134-104.306c0-57.606-47.069-104.306-105.134-104.306s-105.136 46.699-105.136 104.306z" />
<glyph unicode="&#xe299;" glyph-name="299" d="M483.77 245.424v0c-6.010 0.917-11.117-0.917-14.122-5.198l-82.622-84.088c-16.224-16.512-36.354-28.742-58.587-32.717-37.256-7.034-73.61 3.974-99.749 30.883-21.032 21.403-32.149 49.229-32.149 78.89 0 29.659 11.117 58.403 32.149 78.89l143.314 145.854c27.341 27.826 65.498 39.139 103.955 29.661 11.117-3.058 22.234-7.034 31.246-13.454 13.219-8.256 24.336-18.347 32.147-30.883 6.91-10.397 20.131-12.232 29.144-3.976 0.901 0 0.901 0.918 0.901 0.918 8.112 6.115 10.216 18.346 3.907 26.602-11.117 17.429-27.341 32.718-45.368 44.032-12.018 7.032-24.336 13.454-38.458 16.512-52.579 13.454-104.856-2.141-141.211-39.139l-153.229-153.805c-57.384-58.403-57.384-152.888 0-210.373 27.341-27.826 64.597-44.032 103.955-44.032 39.36 0 75.714 15.288 103.955 44.032l91.637 93.261c9.314 9.478 3.306 26.909-10.816 28.131v0zM606.653 362.23c-6.010 7.032-16.224 9.173-25.237 3.974-24.338-14.371-53.48-18.346-82.624-11.314-12.018 3.058-23.134 8.256-33.35 15.29-11.115 8.256-21.030 17.429-29.142 28.742-6.91 10.397-20.13 11.314-29.144 3.974-0.901 0-0.901-0.917-2.102-0.917-6.91-6.115-9.014-18.346-3.906-26.602s11.115-15.29 18.026-22.629c27.341-27.824 64.597-44.030 103.955-44.030 28.243 0 55.584 8.256 78.718 23.544 9.914 6.421 12.018 19.875 4.806 29.966v0 0zM690.478 603.486c-2.104-10.397 3.906-21.405 14.12-23.544l3.005-0.918c11.117-3.058 23.134 3.976 25.238 15.29 19.229 91.426 3.003 155.027-49.274 189.886-3.906 3.058-17.126 10.395-21.032 13.453-21.030 11.314-45.368 18.347-69.704 18.347-53.48 0-104.856-15.288-139.107-77.973l-58.587-111.914c-8.112-14.371 3.906-32.718 21.032-29.659 0.901 0 2.102 0 2.102 0 6.91 0.917 13.219 5.197 16.224 11.314l55.582 104.574c19.229 35.776 56.485 58.403 96.746 58.403 18.026 0 36.354-5.198 53.478-13.454 38.158-23.544 69.405-58.403 50.176-153.805v0zM770.096 495.854l49.274 2.139c11.117 0 19.229 9.174 18.027 20.488-0.901 11.314-9.013 19.57-20.13 18.346l-49.274-2.141c-11.117 0-19.229-9.173-18.027-20.486 0.901-11.314 9.014-19.57 20.13-18.346v0zM859.931 398.312l-101.853 42.197c-10.214 3.974-21.030-0.918-25.237-11.314-3.907-10.397 0.901-21.405 11.115-25.685l101.853-42.197c10.214-3.976 21.032 0.917 25.237 11.314 3.005 10.090-1.202 21.403-11.115 25.685v0zM723.827 364.371c-6.91 8.256-19.229 8.256-27.341 0.917-8.112-7.034-8.112-19.57-0.901-27.826l45.368-48.312c6.91-8.256 19.229-8.256 27.341-0.918 8.112 7.034 8.112 19.57 0.901 27.826l-45.368 48.314z" />
<glyph unicode="&#xe300;" glyph-name="300" d="M511.624 716.16c-3.762 0-10.531-4.488-16.549-15.709l-285.834-491.438c-6.018-10.472-6.771-18.701-5.266-22.44 2.256-2.992 9.778-6.733 21.813-6.733h571.67c12.787 0 20.309 3.741 21.813 6.733 2.258 2.992 1.504 11.219-5.266 22.44l-285.834 491.438c-5.266 11.221-12.035 15.709-16.549 15.709v0zM797.459 120h-570.918c-33.848 0-60.174 13.464-73.715 36.653-13.539 23.187-11.282 53.107 5.266 82.28l285.835 491.438c15.795 29.173 41.371 45.629 67.698 45.629 27.078 0 51.901-16.456 69.202-45.629l285.083-491.438c16.547-29.173 18.805-58.344 5.266-82.28-13.541-23.189-40.619-36.653-73.715-36.653v0zM476.27 384.045c1.504-16.456 4.514-28.424 8.275-36.651 5.264-10.472 14.291-16.456 26.326-16.456s21.061 5.984 26.326 16.456c4.514 8.976 6.77 20.195 8.274 35.904l10.531 120.429c1.504 11.219 1.504 22.44 1.504 33.661 0 19.448-2.256 34.408-8.274 45.627-4.514 8.976-14.291 19.448-36.106 19.448-14.291 0-25.574-4.488-34.6-14.211-8.275-8.976-12.789-21.693-12.789-37.4 0-10.472 0.754-26.928 2.258-50.117l8.274-116.69zM511.624 305.506c-12.787 0-23.318-4.488-32.344-13.464s-13.541-19.448-13.541-32.165c0-14.213 4.514-25.432 14.293-33.661 9.026-7.48 19.557-11.968 31.592-11.968s22.566 3.741 31.592 11.968c9.027 8.229 14.291 19.448 14.291 33.661 0 12.717-4.512 23.189-13.539 32.165-9.026 8.976-19.557 13.464-32.344 13.464v0z" />
<glyph unicode="&#xe301;" glyph-name="301" d="M511.931 161.747c-157.861 0-286.184 128.461-286.184 286.184 0 157.725 128.461 286.184 286.184 286.184 157.725 0 286.322-128.186 286.322-286.046s-128.461-286.322-286.322-286.322v0zM511.931 816c-202.789 0-367.931-165.142-367.931-367.931s165.142-368.069 367.931-368.069c202.789 0 368.069 165.142 368.069 368.069 0 202.925-165.142 367.931-368.069 367.931v0zM471.126 424.301l-81.885 81.747-57.979-57.979 139.864-139.864 221.611 221.611-58.117 58.117-163.494-163.632z" />
<glyph unicode="&#xe302;" glyph-name="302" d="M383.104 181.568l14.477 53.206h228.846l14.478-53.206h-257.802zM384.443 397.184c28.955 0 52.424-23.568 52.424-52.666s-23.469-52.685-52.424-52.685c-28.954 0-52.414 23.587-52.414 52.685s23.461 52.666 52.414 52.666v0zM342.725 672.85c0.784 20.125 17.246 36.034 37.291 36.034h269.226c20.043 0 36.507-15.909 37.291-36.038l4.8-123.424c0.402-10.19-3.352-20.106-10.386-27.458-7.034-7.354-16.746-11.51-26.894-11.51h-278.848c-10.158 0-19.87 4.157-26.904 11.51s-10.787 17.267-10.387 27.462l4.811 123.424zM445.605 763.16c0 9.958 8.035 18.029 17.939 18.029h98.661c9.904 0 17.939-8.070 17.939-18.029v-1.446c0-9.957-8.035-18.029-17.939-18.029h-98.661c-9.904 0-17.939 8.072-17.939 18.029v1.446zM639.557 291.834c-28.946 0-52.424 23.587-52.424 52.685s23.478 52.666 52.424 52.666c28.954 0 52.414-23.568 52.414-52.666s-23.461-52.685-52.414-52.685v0zM714.384 266.656c19.707 20.381 30.376 47.912 29.574 76.325l-10.040 354.842c-1.859 65.805-55.477 118.178-120.984 118.178h-201.859c-65.507 0-119.125-52.373-120.984-118.178l-10.050-354.842c-0.802-28.411 9.867-55.944 29.574-76.325 7.107-7.344 15.197-13.496 23.925-18.414l-45.79-168.242h67.712l17.437 64.066h278.21l17.438-64.066h67.712l-45.79 168.251c8.728 4.917 16.808 11.061 23.915 18.405v0z" />
<glyph unicode="&#xe303;" glyph-name="303" d="M408.611 619.157c0 62.232 49.603 112.698 110.763 112.698 61.168 0 110.763-50.466 110.763-112.698v-102.256c12.44 1.888 25.003 4.101 37.661 6.63 13.789 2.75 27.227 5.797 40.234 9.085l4.821 1.264v85.277c0 108.693-86.643 196.843-193.478 196.843-99.979 0-182.283-77.208-192.426-176.195v-109.853l4.362-1.064c12.798-2.971 26.106-5.71 39.866-8.202 13.147-2.376 25.626-4.35 37.445-5.922v103.059l-0.010 1.333zM454.73 340.131c0 32.184 25.683 58.304 57.27 58.304 31.568 0 57.27-26.12 57.27-58.304 0-20.802-10.718-39.592-27.915-50.016l25.088-97.053c0.84-3.152 0.142-6.477-1.787-9.112-1.998-2.578-5.002-4.101-8.251-4.101h-88.838c-3.202 0-6.224 1.523-8.194 4.101-1.968 2.635-2.618 5.97-1.808 9.131l25.080 97.043c-17.216 10.424-27.915 29.205-27.915 50.006v0zM406.115 474.35c-14.662 1.896-28.63 4.042-41.795 6.419-12.046 2.174-24.515 4.733-37.371 7.656l-4.36 1.006-16.152 3.909-16.075 4.187c-1.902 0.517-3.824 0.766-5.709 0.766-7.101 0-14.078-3.747-19.974-9.602-6.885-6.83-12.178-16.328-14.851-26.502-1.178-4.493-1.827-9.131-1.827-13.702v-320.158c0-13.27 5.358-25.362 13.966-34.12 8.579-8.778 20.464-14.21 33.538-14.21h432.992c13.074 0 24.958 5.432 33.576 14.171 8.57 8.797 13.928 20.888 13.928 34.158v320.158c0 4.552-0.65 9.19-1.827 13.683-2.674 10.176-7.966 19.682-14.851 26.512-5.896 5.854-12.874 9.611-19.974 9.611-1.941 0-3.901-0.259-5.794-0.766l-7.901-2.090-0.152-0.077-7.816-2.011-4.832-1.189c-12.723-3.144-25.211-5.95-37.426-8.394-13.957-2.789-28.15-5.259-42.483-7.378l-2.806-0.413c-36.438-5.25-73.357-8.086-110.613-8.421-36.88-0.336-73.883 1.8-110.914 6.477l-2.496 0.317z" />
<glyph unicode="&#xe304;" glyph-name="304" d="M547.008 776c-16.539 0-28.667-13.034-28.667-29.325s13.23-29.325 28.667-29.325c151.059 0 273.451-120.555 273.451-269.35s-122.392-269.35-273.451-269.35c-138.93 0-253.603 102.091-271.245 233.509l20.95-20.635c5.512-5.43 13.23-8.688 20.949-8.688s15.437 3.258 20.95 8.688c11.026 10.861 11.026 29.325 0 40.186l-72.773 71.682c-11.026 10.861-29.771 10.861-40.797 0l-72.773-71.682c-11.027-10.861-11.027-29.325 0-40.186s29.77-10.861 40.797 0l24.258 23.894c16.539-165.086 158.778-295.418 330.786-295.418 183.035 0 331.89 146.622 331.89 326.914 0 182.464-149.957 329.086-332.992 329.086v0zM436.746 289.43c-7.718 0-15.437 3.259-22.051 8.69-12.13 11.946-12.13 31.496 0 43.443l97.030 95.576v193.325c0 17.376 14.333 30.41 30.874 30.41 17.642 0 30.874-14.118 30.874-30.41v-206.358c0-7.603-3.309-16.291-8.822-21.722l-105.851-104.264c-5.512-5.43-13.232-8.69-22.053-8.69v0zM767.533 430.622h-31.976c-11.027 0-20.95 8.69-20.95 20.635 0 10.861 8.821 20.637 20.95 20.637h31.976c11.026 0 20.95-8.69 20.95-20.637s-8.822-20.635-20.95-20.635v0zM691.451 273.139c-5.512 0-9.923 2.171-14.333 5.43l-23.155 22.808c-7.718 7.603-7.718 20.635 0 28.238s20.949 7.603 28.667 0l23.155-22.808c7.718-7.603 7.718-20.637 0-28.238-3.307-4.344-8.821-5.43-14.334-5.43v0zM531.571 206.888c-11.026 0-20.949 8.688-20.949 20.635v31.496c0 10.861 8.821 20.637 20.949 20.637 11.027 0 20.95-8.69 20.95-20.637v-31.496c0-10.861-9.923-20.635-20.95-20.635v0zM669.398 565.298c-5.512 0-9.923 2.173-14.333 5.43-7.718 7.603-7.718 20.637 0 28.238l23.155 22.808c7.718 7.603 20.949 7.603 28.667 0s7.718-20.635 0-28.238l-23.155-22.808c-4.41-3.258-9.923-5.43-14.334-5.43v0z" />
<glyph unicode="&#xe305;" glyph-name="305" d="M572.85 388.254c-82.789-82.79-217.459-82.79-300.25 0s-82.79 217.459 0 300.25c82.79 82.789 217.461 82.789 300.25 0 82.79-82.79 82.79-217.461 0-300.25v0zM860.958 191.765l-202.006 202.008c65.128 107.074 51.882 248.37-40.843 341.093-108.178 108.179-284.797 108.179-392.974 0-108.179-108.178-108.179-284.795 0-392.974 92.723-92.725 234.018-105.971 341.093-40.843l202.006-202.006c25.389-25.389 67.336-25.389 92.725 0s25.389 67.336 0 92.723v0z" />
<glyph unicode="&#xe306;" glyph-name="306" d="M821.253 125.453c0-6.118-5.213-10.488-10.424-10.488h-348.344c-6.080 0-10.424 5.245-10.424 10.488v499.117c0 6.12 5.213 10.49 10.424 10.49h348.344c6.080 0 10.424-5.245 10.424-10.49v-499.117zM213.171 260.941c-6.080 0-10.424 5.245-10.424 10.49v499.115c0 6.12 5.213 10.49 10.424 10.49h348.344c6.080 0 10.424-5.245 10.424-10.49v-100.522h-110.323c-22.586 0-41.698-17.483-44.302-39.334h-164.182v-34.965h163.314v-26.224h-163.314v-34.963h163.314v-26.224h-163.314v-34.965h163.314v-26.222h-163.314v-34.965h163.314v-152.97h-203.274v1.749zM810.829 670.024h-204.142v100.522c0 25.35-19.979 45.454-45.171 45.454h-348.344c-25.192 0-45.171-20.104-45.171-45.454v-499.115c0-25.349 19.979-45.454 45.171-45.454h204.142v-100.523c0-25.349 19.979-45.453 45.171-45.453h348.344c25.192 0 45.171 20.104 45.171 45.453v499.117c0 25.349-20.848 45.454-45.171 45.454zM502.445 422.651v-34.965h267.555v34.965h-267.555zM502.445 482.965v-34.965h267.555v34.965h-267.555zM502.445 544.152v-34.965h267.555v34.965h-267.555zM648.384 190.138c19.11 3.496 31.272 14.859 30.403 34.091 0 18.355-9.555 26.222-27.797 34.090l-15.637 6.992c-10.424 5.245-13.030 7.867-13.030 13.112 0 7.867 6.949 10.49 18.242 10.49 6.082 0 11.294 0 16.506-0.874l1.738-8.741h17.374v26.222c-3.475 0.874-15.637 2.622-26.93 3.496v15.734h-22.586v-16.608c-20.85-2.622-32.142-12.237-32.142-30.594 0-19.23 11.293-25.349 26.93-33.216l16.506-7.867c9.555-4.371 13.030-6.994 13.030-13.112 0-8.741-6.082-12.237-18.243-12.237h-16.506l-1.736 9.614h-17.374v-27.971c6.95-1.749 18.243-2.622 28.667-3.496v-17.483h22.586v18.357zM253.131 357.093v-34.965h133.778v34.965h-133.778zM253.131 732.96v-41.958h267.555v41.958h-267.555z" />
<glyph unicode="&#xe307;" glyph-name="307" d="M813.712 461.448v80.691c8.131 159.752-135.811 273.861-303.339 273.861-167.526 0-303.338-123.074-303.338-274.675v-82.322c-24.397-22.821-39.035-54.61-39.035-90.472 0-67.65 53.674-122.259 120.36-123.89 0.813-12.226 10.571-22.006 22.77-22.006h1.627c13.011 0 22.771 10.597 22.771 22.822v245.333c0 13.042-10.573 22.822-22.771 22.822h-1.627c-12.198 0-21.957-9.781-22.77-22.006-6.507 0-13.826-0.816-20.331-2.446v51.349c0 119 99.214 220.067 242.344 220.067 143.944 0 242.346-101.067 242.346-220.067v-50.533c-5.693 0.814-11.386 1.63-17.891 1.63-0.813 12.226-10.573 22.006-22.771 22.006h-1.626c-13.011 0-22.771-10.597-22.771-22.822v-245.333c0-13.042 10.573-22.822 22.771-22.822h1.626c12.198 0 21.958 9.781 22.771 22.006 8.946 0 17.078 1.63 25.211 3.261-14.638-73.355-67.499-101.883-187.859-107.587-8.133 12.226-23.584 21.19-42.288 21.19h-60.179c-26.837 0-48.795-17.931-48.795-40.752 0-22.822 21.958-40.754 48.795-40.754h60.179c20.331 0 37.41 10.595 44.728 24.451 123.613 5.706 216.322 44.829 228.52 162.198 31.717 22.821 52.861 59.499 52.861 101.067 0 37.493-16.264 70.91-42.288 93.731v0z" />
<glyph unicode="&#xe308;" glyph-name="308" d="M767.299 485.27c0-21.896 17.816-39.646 39.794-39.646 21.976 0 39.792 17.75 39.792 39.646 0 21.894-17.816 39.645-39.792 39.645-21.978 0-39.794-17.75-39.794-39.645zM803.52 222.907h76.48v160.382c0 64.155-96.595 48.118-96.595 48.118 16.106-16.035 20.115-48.118 20.115-48.118v-160.382zM633.826 550.49c0-31.331 25.493-56.728 56.939-56.728 31.448 0 56.941 25.397 56.941 56.728 0 31.33-25.493 56.728-56.941 56.728-31.446 0-56.939-25.398-56.939-56.728zM679.136 222.907h93.061v195.205c0 78.088-117.56 58.566-117.56 58.566 19.603-19.523 24.499-58.566 24.499-58.566v-195.205zM177.096 485.27c0-21.901 17.821-39.654 39.803-39.654 21.981 0 39.802 17.754 39.802 39.654s-17.821 39.653-39.802 39.653c-21.982 0-39.803-17.754-39.803-39.653zM220.47 222.907v160.382c0 0 4.019 32.083 20.125 48.118 0 0-96.595 16.037-96.595-48.118v-160.382h76.47zM276.286 550.49c0-31.331 25.491-56.728 56.939-56.728 31.446 0 56.939 25.397 56.939 56.728 0 31.33-25.493 56.728-56.939 56.728-31.448 0-56.939-25.398-56.939-56.728zM344.864 222.907v195.205c0 0 4.896 39.043 24.491 58.566 0 0-117.56 19.522-117.56-58.566v-195.205h93.069zM426.906 641.984c0-47.506 38.654-86.016 86.336-86.016s86.338 38.51 86.338 86.016-38.654 86.016-86.338 86.016c-47.682 0-86.336-38.51-86.336-86.016zM386.493 168h252.258v244.014c0 69.397-56.474 125.661-126.13 125.661-69.654 0-126.128-56.264-126.128-125.661v-244.014z" />
<glyph unicode="&#xe309;" glyph-name="309" d="M738.608 515.234c28.798 0 52.114-23.258 52.114-51.944 0-28.71-23.315-51.974-52.114-51.974-28.776 0-52.091 23.264-52.091 51.974 0 28.678 23.315 51.944 52.091 51.944v0zM515.576 651.733l-333.493-133.026 289.034 281.293h408.883l-334.531-135.112 108.374-262.6-24.307-15.227-113.96 264.672zM242 213.462c0 0-82.427-40.050-82.53-40.080-6.389-2.338-12.818 17.478-14.059 21.59-8.234 27.416 21.464 47.776 39.757 62.162 44.648 35.152 98.48 67.733 152.086 87.134 15.152 5.491 30.915 9.525 47.021 10.92 28.955 2.485 58.066 3.107 87.107 3.248 34.251 0.163 68.368-0.374 102.573-2.346 9.443-0.536 18.979-0.715 28.352 0.888 11.974 2.088 23.589 5.974 34.493 11.302 8.718 4.261 16.192 9.682 24.011 15.298l25.714 18.701 59.050-15.227-100.056-109.48h-273.757l-129.762-64.11zM716.901 250.749l68.706-154.656-30.752-0.093-58.285 130.845 20.331 23.904zM499.603 171.232l-89.638 48.851h186.555l-96.917-48.851zM652.461 253.357h-280.699l-203.027-96.16 13.341-24.955 178.557 77.445 102.83-54.741-123.811-58.859h64.565l93.317 42.13 81.272-42.13h65.651l-113.406 62.317 108.211 58.206 28.478 2.765 196.624 232.107-34.048 7.626-177.854-205.75z" />
<glyph unicode="&#xe310;" glyph-name="310" d="M822.362 480.978c0-12.093-9.976-21.986-22.168-21.986h-532.050c-12.192 0-14.258 6.034-4.602 13.402l253.051 193.035c9.666 7.378 27.55 13.411 39.744 13.411h110.843c12.192 0 32.144 0 44.338 0h88.675c12.192 0 22.168-9.893 22.168-21.986v-175.877zM800.194 379.848h-110.845c-7.342 0-13.301 5.909-13.301 13.19s5.958 13.19 13.301 13.19h110.845c7.341 0 13.301-5.909 13.301-13.19s-5.96-13.19-13.301-13.19v0zM844.53 736h-310.362c-15.163 0-35.754-6.806-47.883-15.829l-319.229-237.435c-13.142-9.779-23.056-29.442-23.056-45.728v-241.832c0-19.4 15.909-35.176 35.47-35.176h665.059c19.562 0 35.47 15.776 35.47 35.176v505.648c0 19.4-15.909 35.176-35.47 35.176v0z" />
<glyph unicode="&#xe311;" glyph-name="311" d="M820.309 491.138c-10.779 2.25-27.227 19.21-39.608 40.79-4.962 11.269-14.328 38.682 4.626 46.533 8.848 0 18.214-6.682 25.642-18.344 11.181-17.426 17.286-45.459 9.341-68.979v0zM588.723 487.4h-342.76v215.755h342.76v-215.755zM863.762 463.112c14.461 39.123 9.917 88.861-13.885 125.782-4.854 7.565-100.814 137.787-169.416 148.395-48.251-4.122 85.099-115.699 53.238-138.23-16.579-27.755-10.616-52.28 4.272-85.989 10.696-18.776 36.544-57.718 69.826-70.672v-202.547c0-24.395-15.051-44.16-33.595-44.16-18.558 0-33.602 19.765-33.594 44.16l0.016 184.539c0.018 24.395-19.758 47.971-44.15 47.971h-44.176v277.603c0 36.48-29.693 66.035-66.35 66.035h-337.206c-36.659 0-66.35-29.555-66.35-66.035v-614.944h-2.752c-15.282 0-27.638-12.309-27.638-27.502v-27.518h530.696v27.51c0 15.194-12.365 27.501-27.63 27.501h-2.76v276.418h17.549c8.166 0 14.789-6.59 14.789-14.72v-167.285c0-48.771 39.723-88.32 88.73-88.32h1.667c49.016 0 88.739 39.549 88.739 88.32v233.688h-0.018z" />
</font>
</defs>
</svg>
